The Expendables 2 2012 x264 720p Esub BluRay Dual Audio English Hindi GOPI SAHI

The Expendables 2 (2012)


 
Mr. Church reunites the Expendables for what should be an easy paycheck, but when one of their men is murdered on the job, their quest for revenge puts them deep in enemy territory and up against an unexpected threat.
EN

Director:

Simon West

Writers:

Richard Wenk (screenplay), Sylvester Stallone (screenplay) | 4 more credits »
Directed bySimon West
Produced by
  • Avi Lerner
  • Danny Lerner
  • Kevin King Templeton
  • Les Weldon
Screenplay by
Story by
  • David Agosto
  • Ken Kaufman
  • Richard Wenk
Based onCharacters
by David Callaham
Starring
Music byBrian Tyler
CinematographyShelly Johnson
Edited byTodd E. Miller
Production
company
Distributed byLionsgate
Release date
  • August 13, 2012 (London)
  • August 17, 2012 (United States)
Running time
103 minutes[1]
CountryUnited States
LanguageEnglish
Budget$100 million[2]
Box office$315 million[3]




The Expendables 2 2012 x264 720p Esub BluRay Dual Audio English Hindi GOPI SAHI

Format                         : Matroska
Format version                 : Version 4
File size                      : 829 MiB
Duration                       : 1 h 42 min
Overall bit rate               : 1 129 kb/s
Movie name                     : The Expendables 2 2012 GOPI SAHI
Encoded date                   : UTC 2020-09-22 08:24:59
Writing application            : mkvmerge v46.0.0 ('No Deeper Escape') 32-bit
Writing library                : libebml v1.3.10 + libmatroska v1.5.2
Attachments                    : Hammer Logo.jpg / Hammer Logo.jpg

Video
ID                             : 1
Format                         : AVC
Format/Info                    : Advanced Video Codec
Format profile                 : [email protected]
Format settings                : CABAC / 5 Ref Frames
Format settings, CABAC         : Yes
Format settings, Reference fra : 5 frames
Codec ID                       : V_MPEG4/ISO/AVC
Duration                       : 1 h 42 min
Bit rate                       : 899 kb/s
Width                          : 1 280 pixels
Height                         : 534 pixels
Display aspect ratio           : 2.40:1
Frame rate mode                : Constant
Frame rate                     : 23.976 (24000/1001) FPS
Color space                    : YUV
Chroma subsampling             : 4:2:0
Bit depth                      : 8 bits
Scan type                      : Progressive
Bits/(Pixel*Frame)             : 0.055
Stream size                    : 660 MiB (80%)
Title                          : GOPI SAHI
Writing library                : x264 core 157 r2935 545de2f

Audio #1
ID                             : 2
Format                         : AAC LC
Format/Info                    : Advanced Audio Codec Low Complexity
Codec ID                       : A_AAC-2
Duration                       : 1 h 42 min
Bit rate                       : 96.0 kb/s
Channel(s)                     : 2 channels
Channel layout                 : L R
Sampling rate                  : 48.0 kHz
Frame rate                     : 46.875 FPS (1024 SPF)
Compression mode               : Lossy
Delay relative to video        : 3 s 179 ms
Stream size                    : 70.8 MiB (9%)
Title                          : GOPI SAHI
Language                       : Hindi
Default                        : Yes
Forced                         : No

Audio #2
ID                             : 3
Format                         : AAC LC
Format/Info                    : Advanced Audio Codec Low Complexity
Codec ID                       : A_AAC-2
Duration                       : 1 h 42 min
Bit rate                       : 96.0 kb/s
Channel(s)                     : 2 channels
Channel layout                 : L R
Sampling rate                  : 48.0 kHz
Frame rate                     : 46.875 FPS (1024 SPF)
Compression mode               : Lossy
Delay relative to video        : -21 ms
Stream size                    : 70.8 MiB (9%)
Title                          : GOPI SAHI
Language                       : English
Default                        : No
Forced                         : No

Text #1
ID                             : 4
Format                         : PGS
Muxing mode                    : zlib
Codec ID                       : S_HDMV/PGS
Codec ID/Info                  : Picture based subtitle format used on BDs/HD-DVDs
Duration                       : 1 h 29 min
Bit rate                       : 40.9 kb/s
Count of elements              : 1976
Stream size                    : 26.3 MiB (3%)
Title                          : GOPI SAHI
Language                       : English
Default                        : Yes
Forced                         : No

Text #2
ID                             : 5
Format                         : PGS
Muxing mode                    : zlib
Codec ID                       : S_HDMV/PGS
Codec ID/Info                  : Picture based subtitle format used on BDs/HD-DVDs
Duration                       : 1 h 31 min
Bit rate                       : 47.6 kb/s
Count of elements              : 2320
Stream size                    : 31.2 MiB (4%)
Title                          : GOPI SAHI
Language                       : English
Default                        : No
Forced                         : No