The Covenant 2006 x264 720p BluRay Dual Audio English Hindi GOPI SAHI

The Covenant (2006)


 
Four young men who belong to a New England supernatural legacy are forced to battle a fifth power long thought to have died out. Meanwhile, jealousy and suspicion threaten to tear them apart.
EN

Director:

Renny Harlin

Writer:

J.S. Cardone
5.3/10

Directed byRenny Harlin
Produced by
Written byJ. S. Cardone
Starring
Music byTomandandy
CinematographyPierre Gill
Edited byNicolas de Toth
Production
companies
Distributed byScreen Gems
Release date
  • September 8, 2006
Running time
97 minutes[1]
CountryUnited States
Canada
LanguageEnglish
Budget$20 million[2]
Box office$37.6 million[3]



The Covenant 2006 x264 720p Esub BluRay Dual Audio English Hindi GOPI SAHI

Format                         : Matroska
Format version                 : Version 4
File size                      : 761 MiB
Duration                       : 1 h 37 min
Overall bit rate               : 1 095 kb/s
Movie name                     : The Covenant 2006 GOPI SAHI
Encoded date                   : UTC 2020-09-22 13:37:05
Writing application            : mkvmerge v46.0.0 ('No Deeper Escape') 32-bit
Writing library                : libebml v1.3.10 + libmatroska v1.5.2
Attachments                    : Hammer Logo.jpg

Video
ID                             : 1
Format                         : AVC
Format/Info                    : Advanced Video Codec
Format profile                 : [email protected]
Format settings                : CABAC / 5 Ref Frames
Format settings, CABAC         : Yes
Format settings, Reference fra : 5 frames
Codec ID                       : V_MPEG4/ISO/AVC
Duration                       : 1 h 37 min
Bit rate                       : 899 kb/s
Width                          : 1 280 pixels
Height                         : 546 pixels
Display aspect ratio           : 2.35:1
Frame rate mode                : Constant
Frame rate                     : 23.976 (24000/1001) FPS
Color space                    : YUV
Chroma subsampling             : 4:2:0
Bit depth                      : 8 bits
Scan type                      : Progressive
Bits/(Pixel*Frame)             : 0.054
Stream size                    : 624 MiB (82%)
Title                          : GOPI SAHI
Writing library                : x264 core 157 r2935 545de2f

Audio #1
ID                             : 2
Format                         : AAC LC
Format/Info                    : Advanced Audio Codec Low Complexity
Codec ID                       : A_AAC-2
Duration                       : 1 h 37 min
Bit rate                       : 96.0 kb/s
Channel(s)                     : 2 channels
Channel layout                 : L R
Sampling rate                  : 48.0 kHz
Frame rate                     : 46.875 FPS (1024 SPF)
Compression mode               : Lossy
Delay relative to video        : 79 ms
Stream size                    : 67.0 MiB (9%)
Title                          : GOPI SAHI
Language                       : Hindi
Default                        : Yes
Forced                         : No

Audio #2
ID                             : 3
Format                         : AAC LC
Format/Info                    : Advanced Audio Codec Low Complexity
Codec ID                       : A_AAC-2
Duration                       : 1 h 37 min
Bit rate                       : 96.0 kb/s
Channel(s)                     : 2 channels
Channel layout                 : L R
Sampling rate                  : 48.0 kHz
Frame rate                     : 46.875 FPS (1024 SPF)
Compression mode               : Lossy
Delay relative to video        : -21 ms
Stream size                    : 67.0 MiB (9%)
Title                          : GOPI SAHI
Language                       : English
Default                        : No
Forced                         : No

Menu
00:00:00.000                   : :Chapter 1
00:07:06.968                   : :Chapter 2
00:13:55.501                   : :Chapter 3
00:16:20.480                   : :Chapter 4
00:22:04.740                   : :Chapter 5
00:29:20.384                   : :Chapter 6
00:33:20.415                   : :Chapter 7
00:41:43.209                   : :Chapter 8
00:46:11.852                   : :Chapter 9
00:53:45.305                   : :Chapter 10
01:00:20.700                   : :Chapter 11
01:03:48.033                   : :Chapter 12
01:10:58.129                   : :Chapter 13
01:14:55.992                   : :Chapter 14
01:20:03.674                   : :Chapter 15
01:26:30.018                   : :Chapter 16