The Captain 2019 x264 720p Esub BluRay Dual Audio English Hindi GOPI SAHI

The Captain (2019)

Zhong guo ji zhang (original title)

 

When the windshield of his commercial airplane shatters at 30,000 feet in the air, a pilot and his flight crew work to ensure the safety of the passengers and land the plane.
EN

Director:

Andrew Lau (as Weiqiang Liu)

Writer:

Yonggan Yu


6.1/10


Traditional中國機長
Simplified中国机长
MandarinZhōngguó Jīzhǎng
Directed byAndrew Lau
Produced byLi Jinwen
Written byYu Yonggan
StarringZhang Hanyu
Oho Ou
Du Jiang
Yuan Quan
Zhang Tian'ai
Li Qin
Zhang Yamei
Yang Qiru
Production
company
Distributed byBona Film Group Limited
Release date
  • 30 September 2019 (China)
Running time
111 minutes
CountryChina
LanguageMandarin
Box office$411 million[1][2]


The Captain 2019 x264 720p Esub BluRay Dual Audio English Hindi GOPI SAHI

Format                         : Matroska
Format version                 : Version 4
File size                      : 832 MiB
Duration                       : 1 h 46 min
Overall bit rate               : 1 095 kb/s
Movie name                     : The Captain 2019 GOPI SAHI
Encoded date                   : UTC 2020-09-22 22:18:58
Writing application            : mkvmerge v46.0.0 ('No Deeper Escape') 32-bitWriting library                : libebml v1.3.10 + libmatroska v1.5.2
Attachments                    : Hammer Logo.jpg

Video
ID                             : 1
Format                         : AVC
Format/Info                    : Advanced Video Codec
Format profile                 : [email protected]
Format settings                : CABAC / 5 Ref Frames
Format settings, CABAC         : Yes
Format settings, Reference fra : 5 frames
Codec ID                       : V_MPEG4/ISO/AVC
Duration                       : 1 h 46 min
Bit rate                       : 899 kb/s
Width                          : 1 280 pixels
Height                         : 536 pixels
Display aspect ratio           : 2.40:1
Frame rate mode                : Constant
Frame rate                     : 25.000 FPS
Color space                    : YUV
Chroma subsampling             : 4:2:0
Bit depth                      : 8 bits
Scan type                      : Progressive
Bits/(Pixel*Frame)             : 0.052
Stream size                    : 683 MiB (82%)
Title                          : GOPI SAHI
Writing library                : x264 core 157 r2935 545de2f

Audio #1
ID                             : 2
Format                         : AAC LC
Format/Info                    : Advanced Audio Codec Low Complexity
Codec ID                       : A_AAC-2
Duration                       : 1 h 46 min
Bit rate                       : 96.0 kb/s
Channel(s)                     : 2 channels
Channel layout                 : L R
Sampling rate                  : 48.0 kHz
Frame rate                     : 46.875 FPS (1024 SPF)
Compression mode               : Lossy
Delay relative to video        : -14 ms
Stream size                    : 73.3 MiB (9%)
Title                          : GOPI SAHI
Language                       : Hindi
Default                        : Yes
Forced                         : No

Audio #2
ID                             : 3
Format                         : AAC LC
Format/Info                    : Advanced Audio Codec Low Complexity
Codec ID                       : A_AAC-2
Duration                       : 1 h 46 min
Bit rate                       : 96.0 kb/s
Channel(s)                     : 2 channels
Channel layout                 : L R
Sampling rate                  : 48.0 kHz
Frame rate                     : 46.875 FPS (1024 SPF)
Compression mode               : Lossy
Delay relative to video        : -14 ms
Stream size                    : 73.3 MiB (9%)
Title                          : GOPI SAHI
Language                       : English
Default                        : No
Forced                         : No

Text
ID                             : 4
Format                         : UTF-8
Codec ID                       : S_TEXT/UTF8
Codec ID/Info                  : UTF-8 Plain Text
Duration                       : 1 h 36 min
Bit rate                       : 43 b/s
Count of elements              : 1128
Stream size                    : 30.8 KiB (0%)
Title                          : GOPI SAHI
Language                       : English
Default                        : Yes
Forced                         : No