The Burma Conspiracy 2011 x264 720p Esub BluRay Dual Audio English Hindi GOPI SAHI


The Burma Conspiracy (2011)

Largo Winch II (original title)

Largo Winch, the newly appointed CEO of the W Group, is accused of crimes against humanity on the very day he announces his intention to sell his corporation and use the proceeds to create a humanitarian foundation.
EN

Director:

Jérôme Salle

Writers:

Julien Rappeneau (scenario), Jérôme Salle (scenario) | 3 more credits »

Directed byJérôme Salle
Produced byPhilippe Godeau
Written byJulien Rappeneau
Jérôme Salle
StarringTomer Sisley
Sharon Stone
Music byAlexandre Desplat
CinematographyDenis Rouden
Edited byStan Collet
Production
company
Distributed byCinéart
Wild Bunch Distribution
Release date
  • 16 February 2011
Running time
119 minutes
CountryFrance
Belgium
Germany
LanguageFrench
English
Budget$24.1 million
Box office$14.1 million[1]
 
6.2/10
7,447



The Burma Conspiracy 2011 x264 720p Esub BluRay Dual Audio English Hindi GOPI SAHI

Format                         : Matroska
Format version                 : Version 4
File size                      : 941 MiB
Duration                       : 1 h 58 min
Overall bit rate               : 1 112 kb/s
Movie name                     : The Burma Conspiracy 2011 GOPI SAHI
Encoded date                   : UTC 2020-09-07 04:30:14
Writing application            : mkvmerge v46.0.0 ('No Deeper Escape') 32-bit
Writing library                : libebml v1.3.10 + libmatroska v1.5.2
Attachments                    : Hammer Logo.jpg

Video
ID                             : 1
Format                         : AVC
Format/Info                    : Advanced Video Codec
Format profile                 : [email protected]
Format settings                : CABAC / 5 Ref Frames
Format settings, CABAC         : Yes
Format settings, Reference fra : 5 frames
Codec ID                       : V_MPEG4/ISO/AVC
Duration                       : 1 h 58 min
Bit rate                       : 899 kb/s
Width                          : 1 280 pixels
Height                         : 534 pixels
Display aspect ratio           : 2.40:1
Frame rate mode                : Constant
Frame rate                     : 24.000 FPS
Color space                    : YUV
Chroma subsampling             : 4:2:0
Bit depth                      : 8 bits
Scan type                      : Progressive
Bits/(Pixel*Frame)             : 0.055
Stream size                    : 760 MiB (81%)
Title                          : GOPI SAHI
Writing library                : x264 core 157 r2935 545de2f

Audio #1
ID                             : 2
Format                         : AAC LC
Format/Info                    : Advanced Audio Codec Low Complexity
Codec ID                       : A_AAC-2
Duration                       : 1 h 58 min
Bit rate                       : 96.0 kb/s
Channel(s)                     : 2 channels
Channel layout                 : L R
Sampling rate                  : 48.0 kHz
Frame rate                     : 46.875 FPS (1024 SPF)
Compression mode               : Lossy
Delay relative to video        : -21 ms
Stream size                    : 81.4 MiB (9%)
Title                          : GOPI SAHI
Language                       : Hindi
Default                        : Yes
Forced                         : No

Audio #2
ID                             : 3
Format                         : AAC LC
Format/Info                    : Advanced Audio Codec Low Complexity
Codec ID                       : A_AAC-2
Duration                       : 1 h 58 min
Bit rate                       : 96.0 kb/s
Channel(s)                     : 2 channels
Channel layout                 : L R
Sampling rate                  : 48.0 kHz
Frame rate                     : 46.875 FPS (1024 SPF)
Compression mode               : Lossy
Delay relative to video        : -21 ms
Stream size                    : 81.5 MiB (9%)
Title                          : GOPI SAHI
Language                       : English
Default                        : No
Forced                         : No

Text
ID                             : 4
Format                         : PGS
Muxing mode                    : zlib
Codec ID                       : S_HDMV/PGS
Codec ID/Info                  : Picture based subtitle format used on BDs/HD-DVDs
Duration                       : 1 h 52 min
Bit rate                       : 42.8 kb/s
Count of elements              : 2212
Stream size                    : 34.5 MiB (4%)
Title                          : GOPI SAHI
Language                       : English
Default                        : Yes
Forced                         : No