Terminator Salvation 2009 Director's Cut x264 720p Esub BluRay Dual Audio English Hindi GOPISAHI

Terminator Salvation (2009)

In 2018, a mysterious new weapon in the war against the machines, half-human and half-machine, comes to John Connor on the eve of a resistance attack on Skynet. But whose side is he on, and can he be trusted?
EN

Director:

McG
6.5/10
339,796

Directed byMcG
Produced by
Written byJohn Brancato
Michael Ferris
Based on
Starring
Music byDanny Elfman
CinematographyShane Hurlbut
Edited byConrad Buff
Production
company
Distributed by
Release date
  • May 21, 2009
(United States)
Running time
115 minutes
CountryUnited States
LanguageEnglish
Budget$200 million[1]
Box office$371.4 million[2]


Terminator Salvation 2009 Director's Cut GOPI SAHI

Format                         : Matroska
Format version                 : Version 4
File size                      : 1.07 GiB
Duration                       : 1 h 57 min
Overall bit rate               : 1 303 kb/s
Movie name                     : Terminator Salvation 2009 Director's Cut GOPI SAHI
Encoded date                   : UTC 2020-09-27 04:17:35

Video
ID                             : 3
Format                         : AVC
Format/Info                    : Advanced Video Codec
Format profile                 : [email protected]
Format settings                : CABAC / 12 Ref Frames
Format settings, CABAC         : Yes
Format settings, Reference fra : 12 frames
Codec ID                       : V_MPEG4/ISO/AVC
Duration                       : 1 h 57 min
Bit rate                       : 1 100 kb/s
Width                          : 1 280 pixels
Height                         : 534 pixels
Display aspect ratio           : 2.40:1
Frame rate mode                : Constant
Frame rate                     : 23.976 (24000/1001) FPS
Color space                    : YUV
Chroma subsampling             : 4:2:0
Bit depth                      : 8 bits
Scan type                      : Progressive
Bits/(Pixel*Frame)             : 0.067
Stream size                    : 926 MiB (84%)
Title                          : GOPI SAHI
Writing library                : x264 core 157 r2935 545de2f

Audio #1
ID                             : 1
Format                         : AAC LC
Format/Info                    : Advanced Audio Codec Low Complexity
Codec ID                       : A_AAC-2
Duration                       : 1 h 57 min
Bit rate                       : 96.0 kb/s
Channel(s)                     : 2 channels
Channel layout                 : L R
Sampling rate                  : 48.0 kHz
Frame rate                     : 46.875 FPS (1024 SPF)
Compression mode               : Lossy
Delay relative to video        : 7 s 989 ms
Stream size                    : 81.1 MiB (7%)
Title                          : GOPI SAHI
Language                       : Hindi
Default                        : No
Forced                         : No

Audio #2
ID                             : 2
Format                         : AAC LC
Format/Info                    : Advanced Audio Codec Low Complexity
Codec ID                       : A_AAC-2
Duration                       : 1 h 57 min
Bit rate                       : 96.0 kb/s
Channel(s)                     : 2 channels
Channel layout                 : L R
Sampling rate                  : 48.0 kHz
Frame rate                     : 46.875 FPS (1024 SPF)
Compression mode               : Lossy
Delay relative to video        : -21 ms
Stream size                    : 81.0 MiB (7%)
Title                          : GOPI SAHI
Language                       : English
Default                        : No
Forced                         : No

Text
ID                             : 4
Format                         : PGS
Muxing mode                    : zlib
Codec ID                       : S_HDMV/PGS
Codec ID/Info                  : Picture based subtitle format used on BDs/HD-DVDs
Duration                       : 1 h 49 min
Bit rate                       : 18.1 kb/s
Count of elements              : 1607
Stream size                    : 14.2 MiB (1%)
Title                          : GOPI SAHI
Language                       : English
Default                        : Yes
Forced                         : Yes

Menu
00:00:00.000                   : en:Chapter 01
00:04:11.626                   : en:Chapter 02
00:14:43.758                   : en:Chapter 03
00:21:53.270                   : en:Chapter 04
00:29:56.378                   : en:Chapter 05
00:35:10.024                   : en:Chapter 06
00:41:51.717                   : en:Chapter 07
00:51:53.402                   : en:Chapter 08
00:58:35.554                   : en:Chapter 09
01:08:16.926                   : en:Chapter 10
01:17:40.739                   : en:Chapter 11
01:25:28.540                   : en:Chapter 12
01:33:14.005                   : en:Chapter 13
01:37:33.973                   : en:Chapter 14
01:41:38.217                   : en:Chapter 15
01:45:32.326                   : en:Chapter 16