Terminator 3- Rise of the Machines 2003 x264 720p Esub BluRay Dual Audio English Hindi GOPISAHI

Terminator 3: Rise of the Machines (2003)



R | | Action, Sci-Fi | 2 July 2003 (USA) 
 
A machine from a post-apocalyptic future travels back in time to protect a man and a woman from an advanced robotic assassin to ensure they both survive a nuclear attack.
EN

Director:

Jonathan Mostow

Writers:

John Brancato (story by), Michael Ferris (story by) | 3 more credits »
6.3/10
372,536

Directed byJonathan Mostow
Produced by
Screenplay byJohn Brancato
Michael Ferris
Story by
Starring
Music byMarco Beltrami
CinematographyDon Burgess
Edited by
Production
company
Distributed by
Release date
Running time
109 minutes[2]
CountryUnited States
Germany
United Kingdom[3]
LanguageEnglish
Budget$187.3 million ($167.3 million excluding production overhead)
Box office$433.4 million


Terminator 3- Rise of the Machines 2003 GOPI SAHI

Format                         : Matroska
Format version                 : Version 4
File size                      : 1 023 MiB
Duration                       : 1 h 49 min
Overall bit rate               : 1 311 kb/s
Movie name                     : Terminator 3: Rise of the Machines 2003 GOPI SAHI
Encoded date                   : UTC 2020-09-27 04:16:45

Video
ID                             : 3
Format                         : AVC
Format/Info                    : Advanced Video Codec
Format profile                 : [email protected]
Format settings                : CABAC / 12 Ref Frames
Format settings, CABAC         : Yes
Format settings, Reference fra : 12 frames
Codec ID                       : V_MPEG4/ISO/AVC
Duration                       : 1 h 49 min
Bit rate                       : 1 100 kb/s
Width                          : 1 280 pixels
Height                         : 526 pixels
Display aspect ratio           : 2.40:1
Frame rate mode                : Constant
Frame rate                     : 23.976 (24000/1001) FPS
Color space                    : YUV
Chroma subsampling             : 4:2:0
Bit depth                      : 8 bits
Scan type                      : Progressive
Bits/(Pixel*Frame)             : 0.068
Stream size                    : 858 MiB (84%)
Title                          : GOPI SAHI
Writing library                : x264 core 157 r2935 545de2f

Audio #1
ID                             : 1
Format                         : AAC LC
Format/Info                    : Advanced Audio Codec Low Complexity
Codec ID                       : A_AAC-2
Duration                       : 1 h 49 min
Bit rate                       : 96.0 kb/s
Channel(s)                     : 2 channels
Channel layout                 : L R
Sampling rate                  : 48.0 kHz
Frame rate                     : 46.875 FPS (1024 SPF)
Compression mode               : Lossy
Delay relative to video        : -21 ms
Stream size                    : 75.3 MiB (7%)
Title                          : GOPI SAHI
Language                       : Hindi
Default                        : No
Forced                         : No

Audio #2
ID                             : 2
Format                         : AAC LC
Format/Info                    : Advanced Audio Codec Low Complexity
Codec ID                       : A_AAC-2
Duration                       : 1 h 49 min
Bit rate                       : 96.0 kb/s
Channel(s)                     : 2 channels
Channel layout                 : L R
Sampling rate                  : 48.0 kHz
Frame rate                     : 46.875 FPS (1024 SPF)
Compression mode               : Lossy
Delay relative to video        : -21 ms
Stream size                    : 75.3 MiB (7%)
Title                          : GOPI SAHI
Language                       : English
Default                        : No
Forced                         : No

Text #1
ID                             : 4
Format                         : PGS
Muxing mode                    : zlib
Codec ID                       : S_HDMV/PGS
Codec ID/Info                  : Picture based subtitle format used on BDs/HD-DVDs
Duration                       : 1 h 39 min
Bit rate                       : 18.8 kb/s
Count of elements              : 1558
Stream size                    : 13.4 MiB (1%)
Title                          : GOPI SAHI
Language                       : Hindi
Default                        : Yes
Forced                         : Yes

Text #2
ID                             : 5
Format                         : PGS
Muxing mode                    : zlib
Codec ID                       : S_HDMV/PGS
Codec ID/Info                  : Picture based subtitle format used on BDs/HD-DVDs
Duration                       : 1 h 39 min
Bit rate                       : 18.8 kb/s
Count of elements              : 1470
Stream size                    : 13.4 MiB (1%)
Title                          : GOPI SAHI
Language                       : English
Default                        : No
Forced                         : No

Menu
00:00:00.000                   : en:Chapter 01
00:00:52.552                   : en:Chapter 02
00:02:09.671                   : en:Chapter 03
00:02:54.341                   : en:Chapter 04
00:03:50.730                   : en:Chapter 05
00:05:09.809                   : en:Chapter 06
00:06:21.214                   : en:Chapter 07
00:07:28.823                   : en:Chapter 08
00:08:30.135                   : en:Chapter 09
00:09:22.437                   : en:Chapter 10
00:11:30.940                   : en:Chapter 11
00:15:05.488                   : en:Chapter 12
00:16:23.858                   : en:Chapter 13
00:18:06.294                   : en:Chapter 14
00:18:55.968                   : en:Chapter 15
00:20:26.308                   : en:Chapter 16
00:22:28.514                   : en:Chapter 17
00:23:59.605                   : en:Chapter 18
00:24:59.164                   : en:Chapter 19
00:26:25.042                   : en:Chapter 20
00:27:19.137                   : en:Chapter 21
00:29:11.249                   : en:Chapter 22
00:29:54.376                   : en:Chapter 23
00:32:14.266                   : en:Chapter 24
00:34:24.646                   : en:Chapter 25
00:35:13.111                   : en:Chapter 26
00:36:04.245                   : en:Chapter 27
00:38:19.506                   : en:Chapter 28
00:40:30.511                   : en:Chapter 29
00:42:29.255                   : en:Chapter 30
00:45:51.082                   : en:Chapter 31
00:48:47.007                   : en:Chapter 32
00:51:03.686                   : en:Chapter 33
00:52:21.638                   : en:Chapter 34
00:55:05.802                   : en:Chapter 35
00:56:33.348                   : en:Chapter 36
00:58:11.822                   : en:Chapter 37
00:59:40.035                   : en:Chapter 38
01:00:11.775                   : en:Chapter 39
01:02:22.447                   : en:Chapter 40
01:03:47.657                   : en:Chapter 41
01:06:02.125                   : en:Chapter 42
01:07:45.520                   : en:Chapter 43
01:09:04.349                   : en:Chapter 44
01:12:16.624                   : en:Chapter 45
01:14:27.421                   : en:Chapter 46
01:15:43.456                   : en:Chapter 47
01:19:07.534                   : en:Chapter 48
01:20:18.981                   : en:Chapter 49
01:21:27.216                   : en:Chapter 50
01:22:41.206                   : en:Chapter 51
01:23:57.199                   : en:Chapter 52
01:25:03.265                   : en:Chapter 53
01:25:46.391                   : en:Chapter 54
01:26:30.560                   : en:Chapter 55
01:27:29.035                   : en:Chapter 56
01:29:07.050                   : en:Chapter 57
01:31:58.388                   : en:Chapter 58
01:33:37.070                   : en:Chapter 59
01:34:32.333                   : en:Chapter 60
01:35:54.040                   : en:Chapter 61
01:37:31.304                   : en:Chapter 62
01:39:22.915                   : en:Chapter 63
01:41:00.096                   : en:Chapter 64