Stuber 2019 x264 720p Esub BluRay Dual Audio English Hindi GOPISAHI

Stuber (2019)


A detective recruits his Uber driver into an unexpected night of adventure.
EN


6.2/10
Directed byMichael Dowse
Produced by
Written byTripper Clancy
Starring
Music byJoseph Trapanese
CinematographyBobby Shore
Edited byJonathan Schwartz
Production
company
GoldDay Productions
Distributed by20th Century Fox
Release date
  • March 13, 2019 (SXSW)
  • July 12, 2019 (United States)
Running time
93 minutes
CountryUnited States
LanguageEnglish
Budget$16 million[1]
Box office$32.4 million[2]



Stuber 2019 x264 720p Esub BluRay Dual Audio English Hindi GOPISAHI

Format                         : Matroska
Format version                 : Version 4
File size                      : 771 MiB
Duration                       : 1 h 33 min
Overall bit rate               : 1 154 kb/s
Movie name                     : Stuber 2019 GOPISAHI
Encoded date                   : UTC 2019-11-14 06:05:52

Video
ID                             : 1
Format                         : AVC
Format/Info                    : Advanced Video Codec
Format profile                 : [email protected]
Format settings                : CABAC / 12 Ref Frames
Format settings, CABAC         : Yes
Format settings, Reference fra : 12 frames
Codec ID                       : V_MPEG4/ISO/AVC
Duration                       : 1 h 33 min
Bit rate                       : 899 kb/s
Width                          : 1 280 pixels
Height                         : 536 pixels
Display aspect ratio           : 2.40:1
Frame rate mode                : Constant
Frame rate                     : 23.976 (24000/1001) FPS
Color space                    : YUV
Chroma subsampling             : 4:2:0
Bit depth                      : 8 bits
Scan type                      : Progressive
Bits/(Pixel*Frame)             : 0.055
Stream size                    : 600 MiB (78%)
Title                          : GOPISAHI
Writing library                : x264 core 157 r2935 545de2f

Audio #1
ID                             : 2
Format                         : AAC LC
Format/Info                    : Advanced Audio Codec Low Complexity
Codec ID                       : A_AAC-2
Duration                       : 1 h 33 min
Bit rate                       : 96.0 kb/s
Channel(s)                     : 2 channels
Channel layout                 : L R
Sampling rate                  : 48.0 kHz
Frame rate                     : 46.875 FPS (1024 SPF)
Compression mode               : Lossy
Delay relative to video        : -11 ms
Stream size                    : 64.4 MiB (8%)
Title                          : GOPISAHI
Language                       : Hindi
Default                        : Yes
Forced                         : No

Audio #2
ID                             : 3
Format                         : AAC LC
Format/Info                    : Advanced Audio Codec Low Complexity
Codec ID                       : A_AAC-2
Duration                       : 1 h 33 min
Bit rate                       : 96.0 kb/s
Channel(s)                     : 2 channels
Channel layout                 : L R
Sampling rate                  : 48.0 kHz
Frame rate                     : 46.875 FPS (1024 SPF)
Compression mode               : Lossy
Delay relative to video        : -21 ms
Stream size                    : 64.5 MiB (8%)
Title                          : GOPISAHI
Language                       : English
Default                        : No
Forced                         : No

Text #1
ID                             : 4
Format                         : PGS
Muxing mode                    : zlib
Codec ID                       : S_HDMV/PGS
Codec ID/Info                  : Picture based subtitle format used on BDs/HD-DVDs
Duration                       : 1 h 32 min
Bit rate                       : 41.7 kb/s
Count of elements              : 3636
Stream size                    : 27.6 MiB (4%)
Title                          : GOPISAHI
Language                       : Hindi
Default                        : Yes
Forced                         : Yes

Text #2
ID                             : 5
Format                         : PGS
Muxing mode                    : zlib
Codec ID                       : S_HDMV/PGS
Codec ID/Info                  : Picture based subtitle format used on BDs/HD-DVDs
Duration                       : 1 h 27 min
Bit rate                       : 62.4 kb/s
Count of elements              : 4306
Stream size                    : 38.9 MiB (5%)
Title                          : GOPISAHI
Language                       : English
Default                        : No
Forced                         : No

Text #3
ID                             : 6
Format                         : PGS
Muxing mode                    : zlib
Codec ID                       : S_HDMV/PGS
Codec ID/Info                  : Picture based subtitle format used on BDs/HD-DVDs
Duration                       : 1 h 28 min
Bit rate                       : 90.7 kb/s
Count of elements              : 4246
Stream size                    : 57.4 MiB (7%)
Title                          : GOPISAHI
Language                       : English
Default                        : No
Forced                         : No

Menu
00:00:00.000                   : en:Chapter 01
00:05:52.435                   : en:Chapter 02
00:09:57.222                   : en:Chapter 03
00:14:14.854                   : en:Chapter 04
00:17:30.675                   : en:Chapter 05
00:19:46.310                   : en:Chapter 06
00:22:40.276                   : en:Chapter 07
00:27:33.402                   : en:Chapter 08
00:31:30.889                   : en:Chapter 09
00:33:19.247                   : en:Chapter 10
00:35:39.888                   : en:Chapter 11
00:40:13.036                   : en:Chapter 12
00:45:05.202                   : en:Chapter 13
00:49:10.114                   : en:Chapter 14
00:52:36.987                   : en:Chapter 15
00:56:46.111                   : en:Chapter 16
01:01:54.252                   : en:Chapter 17
01:05:43.648                   : en:Chapter 18
01:08:37.196                   : en:Chapter 19
01:13:31.157                   : en:Chapter 20
01:16:44.517                   : en:Chapter 21
01:19:07.534                   : en:Chapter 22
01:23:54.780                   : en:Chapter 23
01:27:49.598                   : en:Chapter 24