Street Fighter 1994 x264 720p Esub BluRay Dual Audio English Hindi GOPI SAHI

Street Fighter (1994)

 
Col. Guile and various other martial arts heroes fight against the tyranny of Dictator M. Bison and his cohorts.
EN

Director:

Steven E. de Souza
4.0/10

Directed bySteven E. de Souza
Produced by
Screenplay bySteven E. de Souza[2]
Based onStreet Fighter
by Capcom
Starring
Music byGraeme Revell
CinematographyWilliam A. Fraker[1]
Edited by
Production
company
Distributed by
Release date
  • December 23, 1994 (United States)
  • May 6, 1995 (Japan)
Running time
102 minutes
CountryUnited States[2][3]
Japan[3]
LanguageEnglish
Budget$35 million[4]
Box office$99.4 million[4]


Street Fighter 1994 x264 720p Esub BluRay Dual Audio English Hindi GOPI SAHI

Format                         : Matroska
Format version                 : Version 4
File size                      : 803 MiB
Duration                       : 1 h 41 min
Overall bit rate               : 1 105 kb/s
Movie name                     : Street Fighter 1994 GOPI SAHI
Encoded date                   : UTC 2020-09-21 02:23:58

Video
ID                             : 1
Format                         : AVC
Format/Info                    : Advanced Video Codec
Format profile                 : [email protected]
Format settings                : CABAC / 5 Ref Frames
Format settings, CABAC         : Yes
Format settings, Reference fra : 5 frames
Codec ID                       : V_MPEG4/ISO/AVC
Duration                       : 1 h 41 min
Bit rate                       : 899 kb/s
Width                          : 1 280 pixels
Height                         : 544 pixels
Display aspect ratio           : 2.35:1
Frame rate mode                : Constant
Frame rate                     : 23.976 (24000/1001) FPS
Color space                    : YUV
Chroma subsampling             : 4:2:0
Bit depth                      : 8 bits
Scan type                      : Progressive
Bits/(Pixel*Frame)             : 0.054
Stream size                    : 653 MiB (81%)
Title                          : GOPI SAHI
Writing library                : x264 core 157 r2935 545de2f

Audio #1
ID                             : 2
Format                         : AAC LC
Format/Info                    : Advanced Audio Codec Low Complexity
Codec ID                       : A_AAC-2
Duration                       : 1 h 41 min
Bit rate                       : 96.0 kb/s
Channel(s)                     : 2 channels
Channel layout                 : L R
Sampling rate                  : 48.0 kHz
Frame rate                     : 46.875 FPS (1024 SPF)
Compression mode               : Lossy
Delay relative to video        : 2 s 888 ms
Stream size                    : 69.9 MiB (9%)
Title                          : GOPI SAHI
Language                       : Hindi
Default                        : Yes
Forced                         : No

Audio #2
ID                             : 3
Format                         : AAC LC
Format/Info                    : Advanced Audio Codec Low Complexity
Codec ID                       : A_AAC-2
Duration                       : 1 h 41 min
Bit rate                       : 96.0 kb/s
Channel(s)                     : 2 channels
Channel layout                 : L R
Sampling rate                  : 48.0 kHz
Frame rate                     : 46.875 FPS (1024 SPF)
Compression mode               : Lossy
Delay relative to video        : -21 ms
Stream size                    : 70.2 MiB (9%)
Title                          : GOPI SAHI
Language                       : English
Default                        : No
Forced                         : No

Text
ID                             : 4
Format                         : PGS
Muxing mode                    : zlib
Codec ID                       : S_HDMV/PGS
Codec ID/Info                  : Picture based subtitle format used on BDs/HD-DVDs
Duration                       : 1 h 40 min
Bit rate                       : 35.1 kb/s
Count of elements              : 2418
Stream size                    : 25.3 MiB (3%)
Title                          : GOPI SAHI
Language                       : English
Default                        : Yes
Forced                         : Yes

Menu
00:00:00.000                   : :Chapter 1
00:06:06.199                   : :Chapter 2
00:11:15.300                   : :Chapter 3
00:15:21.712                   : :Chapter 4
00:19:06.145                   : :Chapter 5
00:26:00.142                   : :Chapter 6
00:31:19.419                   : :Chapter 7
00:38:50.620                   : :Chapter 8
00:42:05.273                   : :Chapter 9
00:48:35.246                   : :Chapter 10
00:54:04.783                   : :Chapter 11
00:57:42.501                   : :Chapter 12
01:02:36.503                   : :Chapter 13
01:07:48.398                   : :Chapter 14
01:13:54.430                   : :Chapter 15
01:17:30.938                   : :Chapter 16
01:23:58.992                   : :Chapter 17
01:27:19.860                   : :Chapter 18
01:30:49.736                   : :Chapter 19
01:34:54.981                   : :Chapter 20