Speed 2- Cruise Control 1997 x264 720p Esub BluRay Dual Audio English Hindi GOPI SAHI

Speed 2: Cruise Control (1997)


PG-13 | | Action, Adventure, Crime | 13 June 1997 (USA)

A computer hacker breaks into the computer system of the Seabourn Legend cruise liner and sets it speeding on a collision course into a gigantic oil tanker.
EN

Director:

Jan de Bont

Writers:

Graham Yost (characters), Jan de Bont (story) | 3 more credits »
3.9/10
73,752

Directed byJan de Bont
Produced by
  • Jan de Bont
  • Steve Perry
  • Michael Peyser
Screenplay by
Story by
  • Jan de Bont
  • Randall McCormick
Based onCharacters created
by Graham Yost
Starring
Music byMark Mancina
CinematographyJack N. Green
Edited byAlan Cody
Production
company
Blue Tulip Productions[1]
Distributed by20th Century Fox[1]
Release date
  • June 13, 1997
Running time
126 minutes[1]
CountryUnited States
LanguageEnglish
Budget$110–160 million[2]
Box office$164.5 million[3]


Format                         : Matroska
Format version                 : Version 4
File size                      : 990 MiB
Duration                       : 2 h 5 min
Overall bit rate               : 1 106 kb/s
Movie name                     : Speed 2: Cruise Control 1997 GOPI SAHI
Encoded date                   : UTC 2020-09-30 01:56:06

Video
ID                             : 1
Format                         : AVC
Format/Info                    : Advanced Video Codec
Format profile                 : [email protected]
Format settings                : CABAC / 5 Ref Frames
Format settings, CABAC         : Yes
Format settings, Reference fra : 5 frames
Codec ID                       : V_MPEG4/ISO/AVC
Duration                       : 2 h 5 min
Bit rate                       : 899 kb/s
Width                          : 1 280 pixels
Height                         : 532 pixels
Display aspect ratio           : 2.40:1
Frame rate mode                : Constant
Frame rate                     : 23.976 (24000/1001) FPS
Color space                    : YUV
Chroma subsampling             : 4:2:0
Bit depth                      : 8 bits
Scan type                      : Progressive
Bits/(Pixel*Frame)             : 0.055
Stream size                    : 805 MiB (81%)
Title                          : GOPI SAHI
Writing library                : x264 core 157 r2935 545de2f

Audio #1
ID                             : 2
Format                         : AAC LC
Format/Info                    : Advanced Audio Codec Low Complexity
Codec ID                       : A_AAC-2
Duration                       : 2 h 5 min
Bit rate                       : 96.0 kb/s
Channel(s)                     : 2 channels
Channel layout                 : L R
Sampling rate                  : 48.0 kHz
Frame rate                     : 46.875 FPS (1024 SPF)
Compression mode               : Lossy
Delay relative to video        : -21 ms
Stream size                    : 86.4 MiB (9%)
Title                          : GOPI SAHI
Language                       : Hindi
Default                        : Yes
Forced                         : No

Audio #2
ID                             : 3
Format                         : AAC LC
Format/Info                    : Advanced Audio Codec Low Complexity
Codec ID                       : A_AAC-2
Duration                       : 2 h 5 min
Bit rate                       : 96.0 kb/s
Channel(s)                     : 2 channels
Channel layout                 : L R
Sampling rate                  : 48.0 kHz
Frame rate                     : 46.875 FPS (1024 SPF)
Compression mode               : Lossy
Delay relative to video        : -21 ms
Stream size                    : 86.3 MiB (9%)
Title                          : GOPI SAHI
Language                       : English
Default                        : No
Forced                         : No

Text
ID                             : 4
Format                         : PGS
Muxing mode                    : zlib
Codec ID                       : S_HDMV/PGS
Codec ID/Info                  : Picture based subtitle format used on BDs/HD-DVDs
Duration                       : 1 h 59 min
Bit rate                       : 35.9 kb/s
Count of elements              : 3742
Stream size                    : 30.8 MiB (3%)
Title                          : GOPI SAHI
Language                       : English
Default                        : Yes
Forced                         : Yes

Menu
00:00:00.000                   : :Chapter 1
00:00:58.058                   : :Chapter 2
00:01:50.193                   : :Chapter 3
00:06:46.907                   : :Chapter 4
00:09:10.550                   : :Chapter 5
00:14:39.003                   : :Chapter 6
00:16:03.212                   : :Chapter 7
00:20:29.145                   : :Chapter 8
00:25:15.639                   : :Chapter 9
00:28:27.748                   : :Chapter 10
00:32:22.399                   : :Chapter 11
00:37:16.151                   : :Chapter 12
00:40:35.600                   : :Chapter 13
00:44:36.132                   : :Chapter 14
00:52:38.614                   : :Chapter 15
00:55:12.810                   : :Chapter 16
00:58:46.189                   : :Chapter 17
01:05:24.003                   : :Chapter 18
01:08:47.832                   : :Chapter 19
01:12:48.573                   : :Chapter 20
01:15:51.380                   : :Chapter 21
01:18:48.724                   : :Chapter 22
01:21:49.905                   : :Chapter 23
01:24:46.498                   : :Chapter 24
01:29:00.043                   : :Chapter 25
01:31:54.175                   : :Chapter 26
01:35:10.079                   : :Chapter 27
01:43:51.892                   : :Chapter 28
01:47:56.929                   : :Chapter 29
01:53:00.565                   : :Chapter 30
01:55:45.647                   : :Chapter 31
01:57:01.806                   : :Chapter 32