Scoob! 2020 x264 720p Esub BluRay Dual Audio English Hindi GOPI SAHI

Scoob! (2020)




Scooby and the gang face their most challenging mystery ever: a plot to unleash the ghost dog Cerberus upon the world. As they race to stop this dogpocalypse, the gang discovers that Scooby has an epic destiny greater than anyone imagined.
EN

Director:

Tony Cervone

Writers:

Jack Donaldson (screenplay by) (as Jack C. Donaldson), Derek Elliott (screenplay by) | 5 more credits »

5.7/10
15,233
Directed byTony Cervone
Produced by
Screenplay by
Story by
Based on
Starring
Music byTom Holkenborg
Edited by
  • Ryan Folsey
  • Vanara Taing
Production
companies
Distributed byWarner Bros. Pictures
Release date
  • May 15, 2020 (United States)
Running time
94 minutes
CountryUnited States
LanguageEnglish
Box office$20.5 million[1][2]




Scoob! 2020 x264 720p Esub BluRay Dual Audio English Hindi GOPI SAHI

Format                         : Matroska
Format version                 : Version 4
File size                      : 744 MiB
Duration                       : 1 h 33 min
Overall bit rate               : 1 110 kb/s
Movie name                     : Scoob! 2020 GOPI SAHI
Encoded date                   : UTC 2020-09-20 12:52:40

Video
ID                             : 1
Format                         : AVC
Format/Info                    : Advanced Video Codec
Format profile                 : [email protected]
Format settings                : CABAC / 5 Ref Frames
Format settings, CABAC         : Yes
Format settings, Reference fra : 5 frames
Codec ID                       : V_MPEG4/ISO/AVC
Duration                       : 1 h 33 min
Bit rate                       : 899 kb/s
Width                          : 1 280 pixels
Height                         : 536 pixels
Display aspect ratio           : 2.40:1
Frame rate mode                : Constant
Frame rate                     : 23.976 (24000/1001) FPS
Color space                    : YUV
Chroma subsampling             : 4:2:0
Bit depth                      : 8 bits
Scan type                      : Progressive
Bits/(Pixel*Frame)             : 0.055
Stream size                    : 603 MiB (81%)
Title                          : GOPI SAHI
Writing library                : x264 core 157 r2935 545de2f

Audio #1
ID                             : 2
Format                         : AAC LC
Format/Info                    : Advanced Audio Codec Low Complexity
Codec ID                       : A_AAC-2
Duration                       : 1 h 33 min
Bit rate                       : 96.0 kb/s
Channel(s)                     : 2 channels
Channel layout                 : L R
Sampling rate                  : 48.0 kHz
Frame rate                     : 46.875 FPS (1024 SPF)
Compression mode               : Lossy
Delay relative to video        : 1 s 672 ms
Stream size                    : 64.6 MiB (9%)
Title                          : GOPI SAHI
Language                       : Hindi
Default                        : Yes
Forced                         : No

Audio #2
ID                             : 3
Format                         : AAC LC
Format/Info                    : Advanced Audio Codec Low Complexity
Codec ID                       : A_AAC-2
Duration                       : 1 h 33 min
Bit rate                       : 96.0 kb/s
Channel(s)                     : 2 channels
Channel layout                 : L R
Sampling rate                  : 48.0 kHz
Frame rate                     : 46.875 FPS (1024 SPF)
Compression mode               : Lossy
Delay relative to video        : -21 ms
Stream size                    : 64.7 MiB (9%)
Title                          : GOPI SAHI
Language                       : English
Default                        : No
Forced                         : No

Text
ID                             : 4
Format                         : PGS
Muxing mode                    : zlib
Codec ID                       : S_HDMV/PGS
Codec ID/Info                  : Picture based subtitle format used on BDs/HD-DVDs
Duration                       : 1 h 31 min
Bit rate                       : 50.6 kb/s
Count of elements              : 3770
Stream size                    : 33.3 MiB (4%)
Title                          : GOPI SAHI
Language                       : English
Default                        : Yes
Forced                         : Yes

Menu
00:00:00.000                   : :Chapter 1
00:07:40.460                   : :Chapter 2
00:15:15.915                   : :Chapter 3
00:25:04.086                   : :Chapter 4
00:34:40.328                   : :Chapter 5
00:44:58.946                   : :Chapter 6
00:53:22.533                   : :Chapter 7
01:01:22.304                   : :Chapter 8
01:10:20.383                   : :Chapter 9
01:19:34.353                   : :Chapter 10
01:27:18.275                   : :Chapter 11