Megamind 2010 x264 720p Esub BluRay Dual Audio English Hindi GOPI SAHI

Megamind (2010)

The supervillain Megamind finally defeats his nemesis, the superhero Metro Man. But without a hero, he loses all purpose and must find new meaning to his life.
EN

Director:

Tom McGrath

7.2/10
223,159

Directed byTom McGrath
Produced by
Written by
  • Alan Schoolcraft
  • Brent Simons
Starring
Music by
Edited byMichael Andrews
Production
companies
Distributed by
Release date
  • October 28, 2010 (Russia)
  • November 5, 2010 (United States)
  • December 3, 2010 (United Kingdom)
Running time
96 minutes[3]
CountryUnited States
LanguageEnglish
Budget$130 million[4]
Box office$321.9 million[4]



Megamind 2010 x264 720p Esub BluRay Dual Audio English Hindi GOPI SAHI

Format                         : Matroska
Format version                 : Version 4
File size                      : 760 MiB
Duration                       : 1 h 37 min
Overall bit rate               : 1 091 kb/s
Movie name                     : Megamind 2010 GOPI SAHI
Encoded date                   : UTC 2020-09-10 03:04:52
Writing application            : mkvmerge v47.0.0 ('Black Flag') 32-bit
Writing library                : libebml v1.3.10 + libmatroska v1.5.2

Video
ID                             : 1
Format                         : AVC
Format/Info                    : Advanced Video Codec
Format profile                 : [email protected]
Format settings                : CABAC / 5 Ref Frames
Format settings, CABAC         : Yes
Format settings, Reference fra : 5 frames
Codec ID                       : V_MPEG4/ISO/AVC
Duration                       : 1 h 35 min
Bit rate                       : 899 kb/s
Width                          : 1 280 pixels
Height                         : 544 pixels
Display aspect ratio           : 2.35:1
Frame rate mode                : Constant
Frame rate                     : 23.976 (24000/1001) FPS
Color space                    : YUV
Chroma subsampling             : 4:2:0
Bit depth                      : 8 bits
Scan type                      : Progressive
Bits/(Pixel*Frame)             : 0.054
Stream size                    : 614 MiB (81%)
Title                          : GOPI SAHI
Writing library                : x264 core 157 r2935 545de2f

Audio #1
ID                             : 2
Format                         : AAC LC
Format/Info                    : Advanced Audio Codec Low Complexity
Codec ID                       : A_AAC-2
Duration                       : 1 h 37 min
Bit rate                       : 96.0 kb/s
Channel(s)                     : 2 channels
Channel layout                 : L R
Sampling rate                  : 48.0 kHz
Frame rate                     : 46.875 FPS (1024 SPF)
Compression mode               : Lossy
Delay relative to video        : 2 s 982 ms
Stream size                    : 65.9 MiB (9%)
Title                          : GOPI SAHI
Language                       : Hindi
Default                        : Yes
Forced                         : No

Audio #2
ID                             : 3
Format                         : AAC LC
Format/Info                    : Advanced Audio Codec Low Complexity
Codec ID                       : A_AAC-2
Duration                       : 1 h 35 min
Bit rate                       : 96.0 kb/s
Channel(s)                     : 2 channels
Channel layout                 : L R
Sampling rate                  : 48.0 kHz
Frame rate                     : 46.875 FPS (1024 SPF)
Compression mode               : Lossy
Delay relative to video        : -21 ms
Stream size                    : 65.9 MiB (9%)
Title                          : GOPI SAHI
Language                       : English
Default                        : No
Forced                         : No

Text #1
ID                             : 4
Format                         : PGS
Muxing mode                    : zlib
Codec ID                       : S_HDMV/PGS
Codec ID/Info                  : Picture based subtitle format used on BDs/HD-DVDs
Duration                       : 1 h 7 min
Bit rate                       : 453 b/s
Count of elements              : 40
Stream size                    : 223 KiB (0%)
Title                          : GOPI SAHI
Language                       : Hindi
Default                        : No
Forced                         : No

Text #2
ID                             : 5
Format                         : PGS
Muxing mode                    : zlib
Codec ID                       : S_HDMV/PGS
Codec ID/Info                  : Picture based subtitle format used on BDs/HD-DVDs
Duration                       : 1 h 34 min
Bit rate                       : 53.7 kb/s
Count of elements              : 2512
Stream size                    : 36.4 MiB (5%)
Title                          : GOPI SAHI
Language                       : English
Default                        : No
Forced                         : No

Menu
00:00:00.000                   : :Chapter 1
00:06:21.798                   : :Chapter 2
00:10:04.437                   : :Chapter 3
00:15:59.292                   : :Chapter 4
00:22:51.537                   : :Chapter 5
00:28:02.681                   : :Chapter 6
00:32:12.139                   : :Chapter 7
00:39:03.758                   : :Chapter 8
00:45:13.753                   : :Chapter 9
00:52:25.225                   : :Chapter 10
00:56:38.061                   : :Chapter 11
01:04:31.743                   : :Chapter 12
01:10:15.878                   : :Chapter 13
01:17:45.536                   : :Chapter 14
01:25:56.777                   : :Chapter 15