Maze Runner- The Death Cure 2018 x264 720p Esub BluRay Dual Audio English Hindi GOPI SAHI

Maze Runner: The Death Cure (2018)


Young hero Thomas embarks on a mission to find a cure for a deadly disease known as "The Flare".
EN

Director:

Wes Ball

Writers:

T.S. Nowlin (screenplay by), James Dashner (based upon the novel by)

6.2/10
107,469

Directed byWes Ball
Produced by
Screenplay byT.S. Nowlin
Based onThe Death Cure
by James Dashner
Starring
Music byJohn Paesano
CinematographyGyula Pados
Edited by
Production
company
Distributed by20th Century Fox
Release date
  • January 11, 2018 (Seoul)
  • January 26, 2018 (United States)
Running time
143 minutes[1]
CountryUnited States
Budget$62 million[2]
Box office$288.2 million[2]




Maze Runner- The Death Cure 2018 GOPI SAHI

Format                         : Matroska
Format version                 : Version 4
File size                      : 1.11 GiB
Duration                       : 2 h 23 min
Overall bit rate               : 1 107 kb/s
Movie name                     : Maze Runner: The Death Cure 2018 GOPI SAHI
Encoded date                   : UTC 2020-09-14 02:44:25

Video
ID                             : 1
Format                         : AVC
Format/Info                    : Advanced Video Codec
Format profile                 : [email protected]
Format settings                : CABAC / 5 Ref Frames
Format settings, CABAC         : Yes
Format settings, Reference fra : 5 frames
Codec ID                       : V_MPEG4/ISO/AVC
Duration                       : 2 h 23 min
Bit rate                       : 899 kb/s
Width                          : 1 280 pixels
Height                         : 534 pixels
Display aspect ratio           : 2.40:1
Frame rate mode                : Constant
Frame rate                     : 23.976 (24000/1001) FPS
Color space                    : YUV
Chroma subsampling             : 4:2:0
Bit depth                      : 8 bits
Scan type                      : Progressive
Bits/(Pixel*Frame)             : 0.055
Stream size                    : 925 MiB (81%)
Title                          : GOPI SAHI
Writing library                : x264 core 157 r2935 545de2f

Audio #1
ID                             : 2
Format                         : AAC LC
Format/Info                    : Advanced Audio Codec Low Complexity
Codec ID                       : A_AAC-2
Duration                       : 2 h 23 min
Bit rate                       : 96.0 kb/s
Channel(s)                     : 2 channels
Channel layout                 : L R
Sampling rate                  : 48.0 kHz
Frame rate                     : 46.875 FPS (1024 SPF)
Compression mode               : Lossy
Delay relative to video        : -21 ms
Stream size                    : 99.2 MiB (9%)
Title                          : GOPI SAHI
Language                       : Hindi
Default                        : Yes
Forced                         : No

Audio #2
ID                             : 3
Format                         : AAC LC
Format/Info                    : Advanced Audio Codec Low Complexity
Codec ID                       : A_AAC-2
Duration                       : 2 h 23 min
Bit rate                       : 96.0 kb/s
Channel(s)                     : 2 channels
Channel layout                 : L R
Sampling rate                  : 48.0 kHz
Frame rate                     : 46.875 FPS (1024 SPF)
Compression mode               : Lossy
Delay relative to video        : -21 ms
Stream size                    : 99.2 MiB (9%)
Title                          : GOPI SAHI
Language                       : English
Default                        : No
Forced                         : No

Text #1
ID                             : 4
Format                         : PGS
Muxing mode                    : zlib
Codec ID                       : S_HDMV/PGS
Codec ID/Info                  : Picture based subtitle format used on BDs/HD-DVDs
Duration                       : 2 h 22 min
Bit rate                       : 16.2 kb/s
Count of elements              : 2792
Stream size                    : 16.5 MiB (1%)
Title                          : GOPI SAHI
Language                       : Hindi
Default                        : Yes
Forced                         : Yes

Text #2
ID                             : 5
Format                         : PGS
Muxing mode                    : zlib
Codec ID                       : S_HDMV/PGS
Codec ID/Info                  : Picture based subtitle format used on BDs/HD-DVDs
Duration                       : 2 h 15 min
Bit rate                       : 22.7 kb/s
Count of elements              : 2778
Stream size                    : 22.0 MiB (2%)
Title                          : GOPI SAHI
Language                       : English
Default                        : No
Forced                         : No

Menu
00:00:00.000                   : :Chapter 1
00:11:31.608                   : :Chapter 2
00:15:59.750                   : :Chapter 3
00:20:08.457                   : :Chapter 4
00:24:34.890                   : :Chapter 5
00:30:40.547                   : :Chapter 6
00:36:47.330                   : :Chapter 7
00:43:15.343                   : :Chapter 8
00:48:06.342                   : :Chapter 9
00:55:17.397                   : :Chapter 10
01:02:42.926                   : :Chapter 11
01:07:14.489                   : :Chapter 12
01:11:56.062                   : :Chapter 13
01:15:48.335                   : :Chapter 14
01:23:20.329                   : :Chapter 15
01:29:45.505                   : :Chapter 16
01:34:00.593                   : :Chapter 17
01:40:09.879                   : :Chapter 18
01:43:33.082                   : :Chapter 19
01:53:38.645                   : :Chapter 20
01:59:43.968                   : :Chapter 21
02:04:49.399                   : :Chapter 22
02:10:03.087                   : :Chapter 23
02:18:03.942                   : :Chapter 24