Logan Lucky 2017 x264 720p Esub BluRay Dual Audio English Hindi GOPI SAHI

Logan Lucky (2017)

PG-13 | | Comedy, Crime, Drama | 18 August 2017 (USA)

Two brothers attempt to pull off a heist during a NASCAR race in North Carolina.
EN

Director:

Steven Soderbergh

Writer:

Jules Asner (as Rebecca Blunt)
7.0/10
125,199

Directed bySteven Soderbergh
Produced by
Written byRebecca Blunt[1]
Starring
Music byDavid Holmes
CinematographyPeter Andrews[a]
Edited byMary Ann Bernard[a]
Distributed by
Release date
  • August 9, 2017 (Knoxville)
  • August 18, 2017 (United States)
Running time
119 minutes[2]
CountryUnited States
LanguageEnglish
Budget$29 million[3]
Box office$48.5 million[3]



Logan Lucky 2017 x264 720p Esub BluRay Dual Audio English Hindi GOPI SAHI

Format                         : Matroska
Format version                 : Version 4
File size                      : 944 MiB
Duration                       : 1 h 59 min
Overall bit rate               : 1 109 kb/s
Movie name                     : Logan Lucky 2017 GOPI SAHI
Encoded date                   : UTC 2020-09-17 14:44:54

Video
ID                             : 1
Format                         : AVC
Format/Info                    : Advanced Video Codec
Format profile                 : [email protected]
Format settings                : CABAC / 5 Ref Frames
Format settings, CABAC         : Yes
Format settings, Reference fra : 5 frames
Codec ID                       : V_MPEG4/ISO/AVC
Duration                       : 1 h 59 min
Bit rate                       : 899 kb/s
Width                          : 1 280 pixels
Height                         : 534 pixels
Display aspect ratio           : 2.40:1
Frame rate mode                : Constant
Frame rate                     : 23.976 (24000/1001) FPS
Color space                    : YUV
Chroma subsampling             : 4:2:0
Bit depth                      : 8 bits
Scan type                      : Progressive
Bits/(Pixel*Frame)             : 0.055
Stream size                    : 766 MiB (81%)
Title                          : GOPI SAHI
Writing library                : x264 core 157 r2935 545de2f

Audio #1
ID                             : 2
Format                         : AAC LC
Format/Info                    : Advanced Audio Codec Low Complexity
Codec ID                       : A_AAC-2
Duration                       : 1 h 59 min
Bit rate                       : 96.0 kb/s
Channel(s)                     : 2 channels
Channel layout                 : L R
Sampling rate                  : 48.0 kHz
Frame rate                     : 46.875 FPS (1024 SPF)
Compression mode               : Lossy
Delay relative to video        : -21 ms
Stream size                    : 82.0 MiB (9%)
Title                          : GOPI SAHI
Language                       : Hindi
Default                        : Yes
Forced                         : No

Audio #2
ID                             : 3
Format                         : AAC LC
Format/Info                    : Advanced Audio Codec Low Complexity
Codec ID                       : A_AAC-2
Duration                       : 1 h 59 min
Bit rate                       : 96.0 kb/s
Channel(s)                     : 2 channels
Channel layout                 : L R
Sampling rate                  : 48.0 kHz
Frame rate                     : 46.875 FPS (1024 SPF)
Compression mode               : Lossy
Delay relative to video        : -21 ms
Stream size                    : 82.0 MiB (9%)
Title                          : GOPI SAHI
Language                       : English
Default                        : No
Forced                         : No

Text
ID                             : 4
Format                         : PGS
Muxing mode                    : zlib
Codec ID                       : S_HDMV/PGS
Codec ID/Info                  : Picture based subtitle format used on BDs/HD-DVDs
Duration                       : 1 h 57 min
Bit rate                       : 46.6 kb/s
Count of elements              : 3499
Stream size                    : 39.3 MiB (4%)
Title                          : GOPI SAHI
Language                       : English
Default                        : Yes
Forced                         : Yes

Menu #1
00:00:00.000                   : :00:00:00.000
00:05:41.883                   : :00:05:41.800
00:07:33.203                   : :00:07:33.203
00:10:40.932                   : :00:10:40.932
00:16:24.066                   : :00:16:24.025
00:21:23.282                   : :00:21:23.282
00:29:08.747                   : :00:29:08.747
00:36:03.703                   : :00:36:03.703
00:41:49.424                   : :00:41:49.424
00:47:11.078                   : :00:47:11.078
00:50:08.881                   : :00:50:08.881
00:54:40.527                   : :00:54:40.527
00:57:27.152                   : :00:57:27.152
00:59:16.636                   : :00:59:16.470
01:04:37.290                   : :01:04:37.290
01:07:27.877                   : :01:07:27.877
01:12:13.079                   : :01:12:12.995
01:17:50.249                   : :01:17:50.249
01:19:20.422                   : :01:19:20.422
01:24:02.996                   : :01:24:02.913
01:28:33.099                   : :01:28:33.099
01:32:41.514                   : :01:32:41.514
01:42:27.475                   : :01:42:27.433
01:46:07.653                   : :01:46:07.653
01:50:50.936                   : :01:50:50.936
01:54:55.263                   : :01:54:55.263

Menu #2
00:00:00.000                   : en:00:00:00.000
00:05:41.800                   : en:00:05:41.800
00:07:33.203                   : en:00:07:33.203
00:10:40.932                   : en:00:10:40.932
00:16:24.025                   : en:00:16:24.025
00:21:23.282                   : en:00:21:23.282
00:29:08.747                   : en:00:29:08.747
00:36:03.703                   : en:00:36:03.703
00:41:49.424                   : en:00:41:49.424
00:47:11.078                   : en:00:47:11.078
00:50:08.881                   : en:00:50:08.881
00:54:40.527                   : en:00:54:40.527
00:57:27.152                   : en:00:57:27.152
00:59:16.470                   : en:00:59:16.470
01:04:37.290                   : en:01:04:37.290
01:07:27.877                   : en:01:07:27.877
01:12:12.995                   : en:01:12:12.995
01:17:50.249                   : en:01:17:50.249
01:19:20.422                   : en:01:19:20.422
01:24:02.913                   : en:01:24:02.913
01:28:33.099                   : en:01:28:33.099
01:32:41.514                   : en:01:32:41.514
01:42:27.433                   : en:01:42:27.433
01:46:07.653                   : en:01:46:07.653
01:50:50.936                   : en:01:50:50.936
01:54:55.263                   : en:01:54:55.263