Little Fockers 2010 x264 720p Esub BluRay Dual Audio English Hindi GOPI SAHI

Little Fockers (2010)

PG-13 | | Comedy, Romance | 22 December 2010 (USA) 
 
Family-patriarch Jack Byrnes wants to appoint a successor. Does his son-in-law, the male nurse Greg Focker, have what it takes?
EN

Director:

Paul Weitz

5.5/10
104,989

Directed byPaul Weitz
Produced byJane Rosenthal
Robert De Niro
Jay Roach
John Hamburg
Written byJohn Hamburg
Larry Stuckey
Based onCharacters
by Greg Glienna
Mary Ruth Clarke
StarringRobert De Niro
Ben Stiller
Owen Wilson
Blythe Danner
Teri Polo
Jessica Alba
Laura Dern
Harvey Keitel
Dustin Hoffman
Barbra Streisand
Music byStephen Trask
CinematographyRemi Adefarasin
Edited byGreg Hayden
Leslie Jones
Myron I. Kerstein
Production
company
Distributed byUniversal Pictures (North America)
Paramount Pictures (International)
Release date
  • December 22, 2010
Running time
98 minutes
CountryUnited States
LanguageEnglish
Budget$100 million
Box office$310.7 million[1]



Little Fockers 2010 x264 720p Esub BluRay Dual Audio English Hindi GOPI SAHI

Format                         : Matroska
Format version                 : Version 4
File size                      : 792 MiB
Duration                       : 1 h 37 min
Overall bit rate               : 1 133 kb/s
Movie name                     : Little Fockers 2010 GOPI SAHI
Encoded date                   : UTC 2020-09-18 08:32:26
Writing application            : mkvmerge v46.0.0 ('No Deeper Escape') 32-bit
Writing library                : libebml v1.3.10 + libmatroska v1.5.2
Attachments                    : Hammer Logo.jpg

Video
ID                             : 1
Format                         : AVC
Format/Info                    : Advanced Video Codec
Format profile                 : [email protected]
Format settings                : CABAC / 5 Ref Frames
Format settings, CABAC         : Yes
Format settings, Reference fra : 5 frames
Codec ID                       : V_MPEG4/ISO/AVC
Duration                       : 1 h 37 min
Bit rate                       : 899 kb/s
Width                          : 1 280 pixels
Height                         : 694 pixels
Display aspect ratio           : 1.85:1
Frame rate mode                : Constant
Frame rate                     : 23.976 (24000/1001) FPS
Color space                    : YUV
Chroma subsampling             : 4:2:0
Bit depth                      : 8 bits
Scan type                      : Progressive
Bits/(Pixel*Frame)             : 0.042
Stream size                    : 629 MiB (79%)
Title                          : GOPI SAHI
Writing library                : x264 core 157 r2935 545de2f

Audio #1
ID                             : 2
Format                         : AAC LC
Format/Info                    : Advanced Audio Codec Low Complexity
Codec ID                       : A_AAC-2
Duration                       : 1 h 35 min
Bit rate                       : 96.0 kb/s
Channel(s)                     : 2 channels
Channel layout                 : L R
Sampling rate                  : 48.0 kHz
Frame rate                     : 46.875 FPS (1024 SPF)
Compression mode               : Lossy
Delay relative to video        : 2 s 903 ms
Stream size                    : 65.3 MiB (8%)
Title                          : GOPI SAHI
Language                       : Hindi
Default                        : Yes
Forced                         : No

Audio #2
ID                             : 3
Format                         : AAC LC
Format/Info                    : Advanced Audio Codec Low Complexity
Codec ID                       : A_AAC-2
Duration                       : 1 h 37 min
Bit rate                       : 96.0 kb/s
Channel(s)                     : 2 channels
Channel layout                 : L R
Sampling rate                  : 48.0 kHz
Frame rate                     : 46.875 FPS (1024 SPF)
Compression mode               : Lossy
Delay relative to video        : -21 ms
Stream size                    : 67.4 MiB (9%)
Title                          : GOPI SAHI
Language                       : English
Default                        : No
Forced                         : No

Text #1
ID                             : 4
Format                         : PGS
Muxing mode                    : zlib
Codec ID                       : S_HDMV/PGS
Codec ID/Info                  : Picture based subtitle format used on BDs/HD-DVDs
Duration                       : 1 h 32 min
Bit rate                       : 45.0 kb/s
Count of elements              : 3714
Stream size                    : 29.7 MiB (4%)
Title                          : GOPI SAHI
Language                       : Hindi
Default                        : Yes
Forced                         : No

Text #2
ID                             : 5
Format                         : PGS
Muxing mode                    : zlib
Codec ID                       : S_HDMV/PGS
Codec ID/Info                  : Picture based subtitle format used on BDs/HD-DVDs
Duration                       : 1 h 32 min
Bit rate                       : 64.4 kb/s
Count of elements              : 3624
Stream size                    : 42.6 MiB (5%)
Title                          : GOPI SAHI
Language                       : English
Default                        : No
Forced                         : No