Land of the Lost 2009 x264 720p Esub BluRay Dual Audio English Hindi GOPI SAHI

Land of the Lost (2009)

PG-13 | | Action, Adventure, Comedy | 5 June 2009 (USA) 

On his latest expedition, Dr. Rick Marshall is sucked into a space-time vortex alongside his research assistant and a redneck survivalist. In this alternate universe, the trio make friends with a primate named Chaka, their only ally in a world full of dinosaurs and other fantastic creatures.
EN

Director:

Brad Silberling
 
5.3/10
64,930

Directed byBrad Silberling
Produced by
Screenplay by
Based onLand of the Lost
by Sid & Marty Krofft, Allan Foshko and David Gerrold
Starring
Music byMichael Giacchino
CinematographyDion Beebe
Edited byPeter Teschner
Production
company
Distributed byUniversal Pictures
Release date
  • June 5, 2009
Running time
102 minutes[1]
CountryUnited States
LanguageEnglish
Budget$100 million[2]
Box office$68.8 million[3]




Land of the Lost 2009 x264 720p Esub BluRay Dual Audio English Hindi GOPI SAHI

Format                         : Matroska
Format version                 : Version 4
File size                      : 820 MiB
Duration                       : 1 h 41 min
Overall bit rate               : 1 128 kb/s
Movie name                     : Land of the Lost 2009 GOPI SAHI
Encoded date                   : UTC 2020-09-16 07:08:57
Writing application            : mkvmerge v46.0.0 ('No Deeper Escape') 32-bit
Writing library                : libebml v1.3.10 + libmatroska v1.5.2
Attachments                    : L.O.T.LGOPI SAHI.jpg

Video
ID                             : 1
Format                         : AVC
Format/Info                    : Advanced Video Codec
Format profile                 : [email protected]
Format settings                : CABAC / 5 Ref Frames
Format settings, CABAC         : Yes
Format settings, Reference fra : 5 frames
Codec ID                       : V_MPEG4/ISO/AVC
Duration                       : 1 h 41 min
Bit rate                       : 899 kb/s
Width                          : 1 280 pixels
Height                         : 694 pixels
Display aspect ratio           : 1.85:1
Frame rate mode                : Constant
Frame rate                     : 23.976 (24000/1001) FPS
Color space                    : YUV
Chroma subsampling             : 4:2:0
Bit depth                      : 8 bits
Scan type                      : Progressive
Bits/(Pixel*Frame)             : 0.042
Stream size                    : 653 MiB (80%)
Title                          : GOPI SAHI
Writing library                : x264 core 157 r2935 545de2f

Audio #1
ID                             : 2
Format                         : AAC LC
Format/Info                    : Advanced Audio Codec Low Complexity
Codec ID                       : A_AAC-2
Duration                       : 1 h 41 min
Bit rate                       : 96.0 kb/s
Channel(s)                     : 2 channels
Channel layout                 : L R
Sampling rate                  : 48.0 kHz
Frame rate                     : 46.875 FPS (1024 SPF)
Compression mode               : Lossy
Delay relative to video        : -3 ms
Stream size                    : 69.9 MiB (9%)
Title                          : GOPI SAHI
Language                       : Hindi
Default                        : Yes
Forced                         : No

Audio #2
ID                             : 3
Format                         : AAC LC
Format/Info                    : Advanced Audio Codec Low Complexity
Codec ID                       : A_AAC-2
Duration                       : 1 h 41 min
Bit rate                       : 96.0 kb/s
Channel(s)                     : 2 channels
Channel layout                 : L R
Sampling rate                  : 48.0 kHz
Frame rate                     : 46.875 FPS (1024 SPF)
Compression mode               : Lossy
Delay relative to video        : -21 ms
Stream size                    : 70.0 MiB (9%)
Title                          : GOPI SAHI
Language                       : English
Default                        : No
Forced                         : No

Text #1
ID                             : 4
Format                         : PGS
Muxing mode                    : zlib
Codec ID                       : S_HDMV/PGS
Codec ID/Info                  : Picture based subtitle format used on BDs/HD-DVDs
Duration                       : 1 h 36 min
Bit rate                       : 30.3 kb/s
Count of elements              : 3424
Stream size                    : 20.8 MiB (3%)
Title                          : GOPI SAHI
Language                       : Hindi
Default                        : Yes
Forced                         : Yes

Text #2
ID                             : 5
Format                         : PGS
Muxing mode                    : zlib
Codec ID                       : S_HDMV/PGS
Codec ID/Info                  : Picture based subtitle format used on BDs/HD-DVDs
Duration                       : 1 h 36 min
Bit rate                       : 41.0 kb/s
Count of elements              : 3286
Stream size                    : 28.2 MiB (3%)
Title                          : GOPI SAHI
Language                       : English
Default                        : No
Forced                         : No

Menu
00:00:00.000                   : :Chapter 1
00:09:39.829                   : :Chapter 2
00:23:18.564                   : :Chapter 3
00:37:32.417                   : :Chapter 4
00:53:38.507                   : :Chapter 5
01:02:30.872                   : :Chapter 6
01:15:46.834                   : :Chapter 7
01:25:51.480                   : :Chapter 8
01:36:40.878                   : :Chapter 9