Hollow Man II 2006 x264 720p Esub BluRay Dual Audio English Hindi GOPI SAHI

Hollow Man II (2006)



A Seattle detective and a biologist are on the run from a dangerous invisible assassin gone rogue.
EN

Director:

Claudio Fäh (as Claudio Faeh)

Writers:

Gary Scott Thompson (based on characters created by), Andrew W. Marlowe (based on characters created by) | 2 more credits »

4.4/10
8,985

Directed byClaudio Fäh
Produced byDavid Lancaster
Screenplay byJoel Soisson
Story byGary Scott Thompson
Based on
StarringPeter Facinelli
Laura Regan
Christian Slater
Music byMarcus Trumpp
CinematographyPeter Wunstorf
Edited byNathan Easterling
Distributed byDestination Films
Release date
  • May 23, 2006
Running time
91 minutes
CountryUnited States
LanguageEnglish


Hollow Man II 2006 GOPI SAHI

Format                         : Matroska
Format version                 : Version 4
File size                      : 734 MiB
Duration                       : 1 h 31 min
Overall bit rate               : 1 124 kb/s
Movie name                     : Hollow Man II 2006 GOPI SAHI
Encoded date                   : UTC 2020-09-17 04:10:27
Writing application            : mkvmerge v46.0.0 ('No Deeper Escape') 32-bit
Writing library                : libebml v1.3.10 + libmatroska v1.5.2
Attachments                    : H-H.2GOPI SAHI.jpg

Video
ID                             : 1
Format                         : AVC
Format/Info                    : Advanced Video Codec
Format profile                 : [email protected]
Format settings                : CABAC / 5 Ref Frames
Format settings, CABAC         : Yes
Format settings, Reference fra : 5 frames
Codec ID                       : V_MPEG4/ISO/AVC
Duration                       : 1 h 31 min
Bit rate                       : 899 kb/s
Width                          : 1 280 pixels
Height                         : 544 pixels
Display aspect ratio           : 2.35:1
Frame rate mode                : Constant
Frame rate                     : 23.976 (24000/1001) FPS
Color space                    : YUV
Chroma subsampling             : 4:2:0
Bit depth                      : 8 bits
Scan type                      : Progressive
Bits/(Pixel*Frame)             : 0.054
Stream size                    : 587 MiB (80%)
Title                          : GOPI SAHI
Writing library                : x264 core 157 r2935 545de2f

Audio #1
ID                             : 2
Format                         : AAC LC
Format/Info                    : Advanced Audio Codec Low Complexity
Codec ID                       : A_AAC-2
Duration                       : 1 h 31 min
Bit rate                       : 96.0 kb/s
Channel(s)                     : 2 channels
Channel layout                 : L R
Sampling rate                  : 48.0 kHz
Frame rate                     : 46.875 FPS (1024 SPF)
Compression mode               : Lossy
Delay relative to video        : -18 ms
Stream size                    : 62.9 MiB (9%)
Title                          : GOPI SAHI
Language                       : Hindi
Default                        : Yes
Forced                         : No

Audio #2
ID                             : 3
Format                         : AAC LC
Format/Info                    : Advanced Audio Codec Low Complexity
Codec ID                       : A_AAC-2
Duration                       : 1 h 31 min
Bit rate                       : 96.0 kb/s
Channel(s)                     : 2 channels
Channel layout                 : L R
Sampling rate                  : 48.0 kHz
Frame rate                     : 46.875 FPS (1024 SPF)
Compression mode               : Lossy
Delay relative to video        : -21 ms
Stream size                    : 63.0 MiB (9%)
Title                          : GOPI SAHI
Language                       : English
Default                        : No
Forced                         : No

Text
ID                             : 4
Format                         : PGS
Muxing mode                    : zlib
Codec ID                       : S_HDMV/PGS
Codec ID/Info                  : Picture based subtitle format used on BDs/HD-DVDs
Duration                       : 1 h 28 min
Bit rate                       : 49.5 kb/s
Count of elements              : 2752
Stream size                    : 31.2 MiB (4%)
Title                          : GOPI SAHI
Language                       : English
Default                        : Yes
Forced                         : Yes

Menu
00:00:00.000                   : :Chapter 1
00:07:18.313                   : :Chapter 2
00:16:20.605                   : :Chapter 3
00:26:55.948                   : :Chapter 4
00:36:23.723                   : :Chapter 5
00:46:12.520                   : :Chapter 6
00:57:01.168                   : :Chapter 7
01:08:34.819                   : :Chapter 8
01:18:58.859                   : :Chapter 9
01:27:24.322                   : :Chapter 10