Hollow Man 2000 Director's Cut x264 720p Esub BluRay Dual Audio English Hindi GOPI SAHI

Hollow Man (2000)


When the leader of a team of scientists volunteers to be the test subject for their experiment in human invisibility, he slowly unravels and turns against them, with horrific consequences.
EN


Director:

Paul Verhoeven

Writers:

Gary Scott Thompson (story), Andrew W. Marlowe (story) | 1 more credit »

5.8/10
122,090

Directed byPaul Verhoeven
Produced by
Screenplay byAndrew W. Marlowe
Story by
Starring
Music byJerry Goldsmith
CinematographyJost Vacano
Edited by
Production
companies
Distributed bySony Pictures Releasing
Release date
  • August 4, 2000 (United States)
  • October 12, 2000 (Germany)
Running time
112 minutes
119 minutes
(director's cut)[1]
Country
  • United States
  • Germany
LanguageEnglish
Budget$95 million
Box office$190.2 million[2]
 



Hollow Man 2000 Director's Cut GOPI SAHI

Format                         : Matroska
Format version                 : Version 4
File size                      : 951 MiB
Duration                       : 1 h 59 min
Overall bit rate               : 1 114 kb/s
Movie name                     : Hollow Man 2000 Director's Cut GOPI SAHI
Encoded date                   : UTC 2020-09-17 04:06:50
Writing application            : mkvmerge v46.0.0 ('No Deeper Escape') 32-bit
Writing library                : libebml v1.3.10 + libmatroska v1.5.2
Attachments                    : H-H.2GOPI SAHI.jpg

Video
ID                             : 1
Format                         : AVC
Format/Info                    : Advanced Video Codec
Format profile                 : [email protected]
Format settings                : CABAC / 5 Ref Frames
Format settings, CABAC         : Yes
Format settings, Reference fra : 5 frames
Codec ID                       : V_MPEG4/ISO/AVC
Duration                       : 1 h 59 min
Bit rate                       : 899 kb/s
Width                          : 1 280 pixels
Height                         : 694 pixels
Display aspect ratio           : 1.85:1
Frame rate mode                : Constant
Frame rate                     : 23.976 (24000/1001) FPS
Color space                    : YUV
Chroma subsampling             : 4:2:0
Bit depth                      : 8 bits
Scan type                      : Progressive
Bits/(Pixel*Frame)             : 0.042
Stream size                    : 766 MiB (81%)
Title                          : GOPI SAHI
Writing library                : x264 core 157 r2935 545de2f

Audio #1
ID                             : 2
Format                         : AAC LC
Format/Info                    : Advanced Audio Codec Low Complexity
Codec ID                       : A_AAC-2
Duration                       : 1 h 59 min
Bit rate                       : 96.0 kb/s
Channel(s)                     : 2 channels
Channel layout                 : L R
Sampling rate                  : 48.0 kHz
Frame rate                     : 46.875 FPS (1024 SPF)
Compression mode               : Lossy
Delay relative to video        : -21 ms
Stream size                    : 82.3 MiB (9%)
Title                          : GOPI SAHI
Language                       : Hindi
Default                        : Yes
Forced                         : No

Audio #2
ID                             : 3
Format                         : AAC LC
Format/Info                    : Advanced Audio Codec Low Complexity
Codec ID                       : A_AAC-2
Duration                       : 1 h 59 min
Bit rate                       : 96.0 kb/s
Channel(s)                     : 2 channels
Channel layout                 : L R
Sampling rate                  : 48.0 kHz
Frame rate                     : 46.875 FPS (1024 SPF)
Compression mode               : Lossy
Delay relative to video        : -21 ms
Stream size                    : 82.3 MiB (9%)
Title                          : GOPI SAHI
Language                       : English
Default                        : No
Forced                         : No

Text #1
ID                             : 4
Format                         : PGS
Muxing mode                    : zlib
Codec ID                       : S_HDMV/PGS
Codec ID/Info                  : Picture based subtitle format used on BDs/HD-DVDs
Duration                       : 1 h 48 min
Bit rate                       : 23.8 kb/s
Count of elements              : 2143
Stream size                    : 18.4 MiB (2%)
Title                          : GOPI SAHI
Language                       : Hindi
Default                        : Yes
Forced                         : Yes

Text #2
ID                             : 5
Format                         : PGS
Muxing mode                    : zlib
Codec ID                       : S_HDMV/PGS
Codec ID/Info                  : Picture based subtitle format used on BDs/HD-DVDs
Duration                       : 1 h 48 min
Bit rate                       : 24.6 kb/s
Count of elements              : 2138
Stream size                    : 19.0 MiB (2%)
Title                          : GOPI SAHI
Language                       : English
Default                        : No
Forced                         : No

Menu
00:00:00.000                   : :Chapter 1
00:08:56.619                   : :Chapter 2
00:12:55.149                   : :Chapter 3
00:22:41.068                   : :Chapter 4
00:28:52.105                   : :Chapter 5
00:36:02.243                   : :Chapter 6
00:47:28.262                   : :Chapter 7
00:50:47.753                   : :Chapter 8
00:59:09.963                   : :Chapter 9
01:09:29.874                   : :Chapter 10
01:12:30.179                   : :Chapter 11
01:23:46.146                   : :Chapter 12
01:29:45.797                   : :Chapter 13
01:36:09.138                   : :Chapter 14
01:42:31.937                   : :Chapter 15
01:46:36.473                   : :Chapter 16