Harry Potter and the Sorcerer's Stone 2001 Ult-Ext. x264 720p Esub BluRay Dual Audio English Hindi GOPI SAHI

Harry Potter and the Sorcerer's Stone (2001)

An orphaned boy enrolls in a school of wizardry, where he learns the truth about himself, his family and the terrible evil that haunts the magical world.
EN

Director:

Chris Columbus

Writers:

J.K. Rowling (novel), Steve Kloves (screenplay)

7.6/10
626,294

Directed byChris Columbus
Produced byDavid Heyman
Screenplay bySteve Kloves
Based onHarry Potter and the Philosopher's Stone
by J. K. Rowling
Starring
Music byJohn Williams
CinematographyJohn Seale
Edited byRichard Francis-Bruce
Production
companies
Distributed byWarner Bros. Pictures[2]
Release date
Running time
152 minutes[3]
Country
  • United Kingdom
  • United States[1][4]
LanguageEnglish
Budget$125 million[5]
Box office$1.002 billion[5]





Format                         : Matroska
Format version                 : Version 4
File size                      : 1.23 GiB
Duration                       : 2 h 38 min
Overall bit rate               : 1 105 kb/s
Movie name                     : Harry Potter and the Sorcerer's Stone 2001 Ult-Ext. GOPI SAHI
Encoded date                   : UTC 2020-09-14 02:32:25

Video
ID                             : 1
Format                         : AVC
Format/Info                    : Advanced Video Codec
Format profile                 : [email protected]
Format settings                : CABAC / 5 Ref Frames
Format settings, CABAC         : Yes
Format settings, Reference fra : 5 frames
Codec ID                       : V_MPEG4/ISO/AVC
Duration                       : 2 h 38 min
Bit rate                       : 899 kb/s
Width                          : 1 280 pixels
Height                         : 532 pixels
Display aspect ratio           : 2.40:1
Frame rate mode                : Constant
Frame rate                     : 23.976 (24000/1001) FPS
Color space                    : YUV
Chroma subsampling             : 4:2:0
Bit depth                      : 8 bits
Scan type                      : Progressive
Bits/(Pixel*Frame)             : 0.055
Stream size                    : 1 021 MiB (81%)
Title                          : GOPI SAHI
Writing library                : x264 core 157 r2935 545de2f

Audio #1
ID                             : 2
Format                         : AAC LC
Format/Info                    : Advanced Audio Codec Low Complexity
Codec ID                       : A_AAC-2
Duration                       : 2 h 38 min
Bit rate                       : 96.0 kb/s
Channel(s)                     : 2 channels
Channel layout                 : L R
Sampling rate                  : 48.0 kHz
Frame rate                     : 46.875 FPS (1024 SPF)
Compression mode               : Lossy
Delay relative to video        : -21 ms
Stream size                    : 109 MiB (9%)
Title                          : GOPI SAHI
Language                       : Hindi
Default                        : Yes
Forced                         : No

Audio #2
ID                             : 3
Format                         : AAC LC
Format/Info                    : Advanced Audio Codec Low Complexity
Codec ID                       : A_AAC-2
Duration                       : 2 h 38 min
Bit rate                       : 96.0 kb/s
Channel(s)                     : 2 channels
Channel layout                 : L R
Sampling rate                  : 48.0 kHz
Frame rate                     : 46.875 FPS (1024 SPF)
Compression mode               : Lossy
Delay relative to video        : -21 ms
Stream size                    : 110 MiB (9%)
Title                          : GOPI SAHI
Language                       : English
Default                        : No
Forced                         : No

Text
ID                             : 4
Format                         : PGS
Muxing mode                    : zlib
Codec ID                       : S_HDMV/PGS
Codec ID/Info                  : Picture based subtitle format used on BDs/HD-DVDs
Duration                       : 2 h 37 min
Bit rate                       : 23.5 kb/s
Count of elements              : 2778
Stream size                    : 26.4 MiB (2%)
Title                          : GOPI SAHI
Language                       : English
Default                        : Yes
Forced                         : Yes

Menu
00:00:00.000                   : :Doorstep Delivery
00:04:05.704                   : :Vanishing Glass
00:08:11.616                   : :Letters From No One
00:13:41.988                   : :Keeper of the Keys
00:19:49.271                   : :Diagon Alley
00:23:42.379                   : :Gringotts
00:26:40.349                   : :Ollivanders
00:30:48.430                   : :The Boy Who Lived
00:33:03.899                   : :Platform 9 3/4
00:36:04.287                   : :Ron and Hermione
00:39:48.469                   : :Welcome to Hogwarts
00:43:28.147                   : :Sorting Hat
00:48:12.181                   : :Nick and Other Residents
00:52:27.686                   : :Potions and Parcels
00:58:29.464                   : :New Seeker
01:04:20.690                   : :Three-Headed Sentinel
01:07:09.025                   : :Facts and Feathers
01:11:13.186                   : :Mountain Troll
01:17:30.688                   : :Quidditch
01:23:59.243                   : :Interference Overcome
01:27:35.917                   : :Christmas Gift
01:32:14.029                   : :Cloaked in Darkness
01:35:25.011                   : :Mirror of Erised
01:41:18.281                   : :Norbert
01:49:04.329                   : :Forbidden Forest
01:55:34.344                   : :Up to Something
01:59:50.975                   : :Through the Trapdoor
02:04:38.930                   : :Wizards' Chess
02:10:14.056                   : :Sacrifice Play
02:13:25.581                   : :Man with Two Faces
02:17:24.653                   : :Magic Touch
02:20:47.981                   : :Mark of Love
02:23:58.880                   : :House Cup Winner
02:28:13.843                   : :Not Really Going Home
02:30:41.699                   : :Credits