Harry Potter and the Order of the Phoenix 2007 x264 720p Esub BluRay Dual Audio English Hindi GOPI SAHI

Harry Potter and the Order of the Phoenix (2007)

PG-13 | | Action, Adventure, Family | 11 July 2007 (USA)

With their warning about Lord Voldemort's (Ralph Fiennes') return scoffed at, Harry (Daniel Radcliffe) and Dumbledore (Sir Michael Gambon) are targeted by the Wizard authorities as an authoritarian bureaucrat slowly seizes power at Hogwarts.
EN

Director:

David Yates

Writers:

Michael Goldenberg (screenplay), J.K. Rowling (novel)
7.5/10


Directed byDavid Yates
Produced by
Screenplay byMichael Goldenberg
Based onHarry Potter and the Order of the Phoenix
by J. K. Rowling
Starring
Music byNicholas Hooper
CinematographySławomir Idziak
Edited byMark Day
Production
company
Distributed byWarner Bros. Pictures
Release date
  • 28 June 2007 (Tokyo)
  • 11 July 2007 (United States)
  • 12 July 2007 (United Kingdom)
Running time
138 minutes[2]
Country
  • United Kingdom[3]
  • United States[3]
LanguageEnglish
Budget$150–200 million[4]
Box office$942 million[5]




Harry Potter and the Order of the Phoenix 2007 GOPI SAHI

Format                         : Matroska
Format version                 : Version 4
File size                      : 1.14 GiB
Duration                       : 2 h 18 min
Overall bit rate               : 1 183 kb/s
Movie name                     : Harry Potter and the Order of the Phoenix 2007 GOPI SAHI
Encoded date                   : UTC 2020-09-13 12:22:25

Video
ID                             : 1
Format                         : AVC
Format/Info                    : Advanced Video Codec
Format profile                 : [email protected]
Format settings                : CABAC / 5 Ref Frames
Format settings, CABAC         : Yes
Format settings, Reference fra : 5 frames
Codec ID                       : V_MPEG4/ISO/AVC
Duration                       : 2 h 18 min
Bit rate                       : 899 kb/s
Width                          : 1 280 pixels
Height                         : 530 pixels
Display aspect ratio           : 2.40:1
Frame rate mode                : Constant
Frame rate                     : 23.976 (24000/1001) FPS
Color space                    : YUV
Chroma subsampling             : 4:2:0
Bit depth                      : 8 bits
Scan type                      : Progressive
Bits/(Pixel*Frame)             : 0.055
Stream size                    : 889 MiB (76%)
Title                          : GOPI SAHI
Writing library                : x264 core 157 r2935 545de2f

Audio #1
ID                             : 2
Format                         : AAC LC
Format/Info                    : Advanced Audio Codec Low Complexity
Codec ID                       : A_AAC-2
Duration                       : 2 h 18 min
Bit rate                       : 96.0 kb/s
Channel(s)                     : 2 channels
Channel layout                 : L R
Sampling rate                  : 48.0 kHz
Frame rate                     : 46.875 FPS (1024 SPF)
Compression mode               : Lossy
Delay relative to video        : 942 ms
Stream size                    : 95.4 MiB (8%)
Title                          : GOPI SAHI
Language                       : Hindi
Default                        : Yes
Forced                         : No

Audio #2
ID                             : 3
Format                         : AAC LC
Format/Info                    : Advanced Audio Codec Low Complexity
Codec ID                       : A_AAC-2
Duration                       : 2 h 18 min
Bit rate                       : 96.0 kb/s
Channel(s)                     : 2 channels
Channel layout                 : L R
Sampling rate                  : 48.0 kHz
Frame rate                     : 46.875 FPS (1024 SPF)
Compression mode               : Lossy
Delay relative to video        : -21 ms
Stream size                    : 95.4 MiB (8%)
Title                          : GOPI SAHI
Language                       : English
Default                        : No
Forced                         : No

Text #1
ID                             : 4
Format                         : PGS
Muxing mode                    : zlib
Codec ID                       : S_HDMV/PGS
Codec ID/Info                  : Picture based subtitle format used on BDs/HD-DVDs
Duration                       : 2 h 10 min
Bit rate                       : 27.9 kb/s
Count of elements              : 3784
Stream size                    : 26.0 MiB (2%)
Title                          : GOPI SAHI
Language                       : Hindi
Default                        : Yes
Forced                         : Yes

Text #2
ID                             : 5
Format                         : PGS
Muxing mode                    : zlib
Codec ID                       : S_HDMV/PGS
Codec ID/Info                  : Picture based subtitle format used on BDs/HD-DVDs
Duration                       : 2 h 17 min
Bit rate                       : 27.2 kb/s
Count of elements              : 2608
Stream size                    : 26.7 MiB (2%)
Title                          : GOPI SAHI
Language                       : English
Default                        : No
Forced                         : No

Text #3
ID                             : 6
Format                         : PGS
Muxing mode                    : zlib
Codec ID                       : S_HDMV/PGS
Codec ID/Info                  : Picture based subtitle format used on BDs/HD-DVDs
Duration                       : 2 h 10 min
Bit rate                       : 60.1 kb/s
Count of elements              : 3784
Stream size                    : 56.1 MiB (5%)
Title                          : GOPI SAHI
Language                       : Tamil
Default                        : No
Forced                         : No

Text #4
ID                             : 7
Format                         : PGS
Muxing mode                    : zlib
Codec ID                       : S_HDMV/PGS
Codec ID/Info                  : Picture based subtitle format used on BDs/HD-DVDs
Duration                       : 2 h 10 min
Bit rate                       : 50.4 kb/s
Count of elements              : 3784
Stream size                    : 47.0 MiB (4%)
Title                          : GOPI SAHI
Language                       : Telugu
Default                        : No
Forced                         : No

Menu
00:00:00.000                   : en:Dudley Demented
00:04:50.957                   : en:The Advance Guard
00:10:16.783                   : en:Number 12, Grimmauld Place
00:15:19.919                   : en:The Order of the Phoenix
00:17:43.229                   : en:The Ministry of Magic
00:20:52.418                   : en:The Hearing
00:25:33.532                   : en:The Originals
00:28:07.352                   : en:Luna Lovegood
00:30:20.986                   : en:Preserve, Perfect and Prune
00:34:53.925                   : en:Professor Umbridge's Class
00:37:41.092                   : en:Detention with Dolores
00:41:48.506                   : en:Thestrals and Sympathy
00:44:57.528                   : en:The Hogwarts High Inquisitor
00:50:57.388                   : en:In the Hog's Head
00:56:37.394                   : en:Dumbledore's Army
01:03:28.638                   : en:Under the Mistletoe
01:07:39.055                   : en:Occlumency
01:11:16.105                   : en:House of Black
01:16:30.252                   : en:Hagrid's Tale
01:19:16.585                   : en:Unquiet Escape
01:25:30.959                   : en:Grawp
01:31:30.652                   : en:Snape's Worst Memory
01:34:49.851                   : en:O.W.L.S.
01:37:42.356                   : en:Out of the Fire
01:41:40.261                   : en:Fight and Flight
01:45:59.353                   : en:The Department of Mysteries
01:48:37.177                   : en:Beyond the Veil
01:52:40.921                   : en:Side By Side
01:57:30.710                   : en:Wizards Duel
02:03:33.239                   : en:The Lost Prophecy
02:05:50.710                   : en:A Way of Coming Back
02:08:26.866                   : en:End Credits