Harry Potter and the Half-Blood Prince 2009 x264 720p Esub BluRay Dual Audio English Hindi GOPI SAHI

Harry Potter and the Half-Blood Prince (2009)

 
As Harry Potter (Daniel Radcliffe) begins his sixth year at Hogwarts, he discovers an old book marked as "the property of the Half-Blood Prince" and begins to learn more about Lord Voldemort's (Ralph Fiennes') dark past.
EN

Director:

David Yates

Writers:

Steve Kloves (screenplay), J.K. Rowling (novel)

7.6/10
458,804

Directed byDavid Yates
Produced by
Screenplay bySteve Kloves
Based onHarry Potter and the Half-Blood Prince
by J. K. Rowling
Starring
Music byNicholas Hooper
CinematographyBruno Delbonnel
Edited byMark Day
Production
company
Distributed byWarner Bros. Pictures
Release date
  • 7 July 2009 (London)
  • 15 July 2009 (United Kingdom and United States)
Running time
153 minutes[2]
Country
  • United Kingdom
  • United States
LanguageEnglish
Budget$250 million[3]
Box office$934.3 million[3]





Harry Potter and the Half-Blood Prince 2009 GOPI SAHI

Format                         : Matroska
Format version                 : Version 4
File size                      : 1.26 GiB
Duration                       : 2 h 33 min
Overall bit rate               : 1 174 kb/s
Movie name                     : Harry Potter and the Half-Blood Prince 2009 GOPI SAHI
Encoded date                   : UTC 2020-09-13 05:08:55

Video
ID                             : 1
Format                         : AVC
Format/Info                    : Advanced Video Codec
Format profile                 : [email protected]
Format settings                : CABAC / 5 Ref Frames
Format settings, CABAC         : Yes
Format settings, Reference fra : 5 frames
Codec ID                       : V_MPEG4/ISO/AVC
Duration                       : 2 h 33 min
Bit rate                       : 899 kb/s
Width                          : 1 280 pixels
Height                         : 556 pixels
Display aspect ratio           : 2.35:1
Frame rate mode                : Constant
Frame rate                     : 23.976 (24000/1001) FPS
Color space                    : YUV
Chroma subsampling             : 4:2:0
Bit depth                      : 8 bits
Scan type                      : Progressive
Bits/(Pixel*Frame)             : 0.053
Stream size                    : 987 MiB (77%)
Title                          : GOPI SAHI
Writing library                : x264 core 157 r2935 545de2f

Audio #1
ID                             : 2
Format                         : AAC LC
Format/Info                    : Advanced Audio Codec Low Complexity
Codec ID                       : A_AAC-2
Duration                       : 2 h 33 min
Bit rate                       : 96.0 kb/s
Channel(s)                     : 2 channels
Channel layout                 : L R
Sampling rate                  : 48.0 kHz
Frame rate                     : 46.875 FPS (1024 SPF)
Compression mode               : Lossy
Delay relative to video        : 975 ms
Stream size                    : 106 MiB (8%)
Title                          : GOPI SAHI
Language                       : Hindi
Default                        : Yes
Forced                         : No

Audio #2
ID                             : 3
Format                         : AAC LC
Format/Info                    : Advanced Audio Codec Low Complexity
Codec ID                       : A_AAC-2
Duration                       : 2 h 33 min
Bit rate                       : 96.0 kb/s
Channel(s)                     : 2 channels
Channel layout                 : L R
Sampling rate                  : 48.0 kHz
Frame rate                     : 46.875 FPS (1024 SPF)
Compression mode               : Lossy
Delay relative to video        : -21 ms
Stream size                    : 106 MiB (8%)
Title                          : GOPI SAHI
Language                       : English
Default                        : No
Forced                         : No

Text #1
ID                             : 4
Format                         : PGS
Muxing mode                    : zlib
Codec ID                       : S_HDMV/PGS
Codec ID/Info                  : Picture based subtitle format used on BDs/HD-DVDs
Duration                       : 2 h 26 min
Bit rate                       : 24.1 kb/s
Count of elements              : 3624
Stream size                    : 25.2 MiB (2%)
Title                          : GOPI SAHI
Language                       : Hindi
Default                        : Yes
Forced                         : Yes

Text #2
ID                             : 5
Format                         : PGS
Muxing mode                    : zlib
Codec ID                       : S_HDMV/PGS
Codec ID/Info                  : Picture based subtitle format used on BDs/HD-DVDs
Duration                       : 2 h 33 min
Bit rate                       : 26.1 kb/s
Count of elements              : 3042
Stream size                    : 28.6 MiB (2%)
Title                          : GOPI SAHI
Language                       : English
Default                        : No
Forced                         : No

Text #3
ID                             : 6
Format                         : PGS
Muxing mode                    : zlib
Codec ID                       : S_HDMV/PGS
Codec ID/Info                  : Picture based subtitle format used on BDs/HD-DVDs
Duration                       : 2 h 26 min
Bit rate                       : 54.1 kb/s
Count of elements              : 3624
Stream size                    : 56.6 MiB (4%)
Title                          : GOPI SAHI
Language                       : Tamil
Default                        : No
Forced                         : No

Text #4
ID                             : 7
Format                         : PGS
Muxing mode                    : zlib
Codec ID                       : S_HDMV/PGS
Codec ID/Info                  : Picture based subtitle format used on BDs/HD-DVDs
Duration                       : 2 h 22 min
Bit rate                       : 43.5 kb/s
Count of elements              : 3622
Stream size                    : 44.5 MiB (3%)
Title                          : GOPI SAHI
Language                       : Telugu
Default                        : No
Forced                         : No

Menu #1
00:00:00.000                   : :Who's Harry Potter?
00:05:28.495                   : :Horace Slughorn
00:12:14.192                   : :What Could Be Safer?
00:14:57.313                   : :Snape's Visitors
00:18:43.456                   : :Draco's Detour
00:22:30.641                   : :That's For My Father
00:27:36.280                   : :Dark Forces
00:32:04.881                   : :The Half Blood Prince
00:37:48.391                   : :The Secret Riddle
00:44:48.603                   : :Hermione's Helping Hand
00:49:31.760                   : :Cursed Necklace
00:54:55.626                   : :Slug Club
01:00:00.555                   : :Felix Felicis
01:03:09.828                   : :How It Feels
01:05:57.412                   : :Free Agents
01:09:13.858                   : :The Unbreakable Vow
01:14:00.353                   : :Death Eaters Attack
01:21:09.990                   : :A Sluggish Memory
01:26:31.520                   : :Perilous Potions
01:33:37.654                   : :Sectumsempra
01:39:57.575                   : :Hiding the Book
01:43:16.273                   : :Liquid Luck
01:48:24.873                   : :After Aragog's Burial
01:52:30.327                   : :Horcruxes
01:56:53.840                   : :The Cave
02:02:11.991                   : :Inferi Attack
02:08:33.623                   : :The Astronomy Tower
02:15:00.467                   : :Flight of the Prince
02:19:08.090                   : :R.a.B.
02:23:54.417                   : :End Credits

Menu #2
00:00:00.000                   : en:Who's Harry Potter?
00:05:28.495                   : en:Horace Slughorn
00:12:13.942                   : en:What Could Be Safer?
00:14:57.146                   : en:Snape's Visitors
00:18:43.205                   : en:Draco's Detour
00:22:30.516                   : en:That's For My Father
00:27:36.029                   : en:Dark Forces
00:32:04.631                   : en:The Half Blood Prince
00:37:48.224                   : en:The Secret Riddle
00:44:48.352                   : en:Hermione's Helping Hand
00:49:31.760                   : en:Cursed Necklace
00:54:55.375                   : en:Slug Club
01:00:00.305                   : en:Felix Felicis
01:03:09.661                   : en:How It Feels
01:05:57.162                   : en:Free Agents
01:09:13.691                   : en:The Unbreakable Vow
01:14:00.102                   : en:Death Eaters Attack
01:21:09.782                   : en:A Sluggish Memory
01:26:31.478                   : en:Perilous Potions
01:33:37.403                   : en:Sectumsempra
01:39:57.325                   : en:Hiding the Book
01:43:16.273                   : en:Liquid Luck
01:48:24.748                   : en:After Aragog's Burial
01:52:30.118                   : en:Horcruxes
01:56:53.673                   : en:The Cave
02:02:11.741                   : en:Inferi Attack
02:08:33.539                   : en:The Astronomy Tower
02:15:00.301                   : en:Flight of the Prince
02:19:08.048                   : en:R.a.B.
02:23:54.125                   : en:End Credits