Harry Potter and the Deathly Hallows- Part 2 2011 x264 720p Esub BluRay Dual Audio English Hindi GOPI SAHI

Harry Potter and the Deathly Hallows: Part 2 (2011)

PG-13 | | Adventure, Drama, Fantasy | 15 July 2011 (USA)

Harry, Ron, and Hermione search for Voldemort's remaining Horcruxes in their effort to destroy the Dark Lord as the final battle rages on at Hogwarts.
EN

Director:

David Yates

Writers:

Steve Kloves (screenplay), J.K. Rowling (novel)

8.1/10
744,411

Directed byDavid Yates
Produced by
Screenplay bySteve Kloves
Based onHarry Potter and the Deathly Hallows
by J. K. Rowling
Starring
Music byAlexandre Desplat
CinematographyEduardo Serra
Edited byMark Day
Production
company
Distributed byWarner Bros. Pictures
Release date
  • 7 July 2011 (Trafalgar Square)
  • 15 July 2011 (United Kingdom and United States)
Running time
130 minutes[1]
Country
  • United Kingdom
  • United States
LanguageEnglish
Budget$250 million
(Shared with Part 1)[2][3]
Box office$1.342 billion[4]



Harry Potter and the Deathly Hallows- Part 2 2011 GOPI SAHI

Format                         : Matroska
Format version                 : Version 4
File size                      : 1.04 GiB
Duration                       : 2 h 10 min
Overall bit rate               : 1 145 kb/s
Movie name                     : Harry Potter and the Deathly Hallows: Part 2 2011 GOPI SAHI
Encoded date                   : UTC 2020-09-13 03:24:09

Video
ID                             : 1
Format                         : AVC
Format/Info                    : Advanced Video Codec
Format profile                 : [email protected]
Format settings                : CABAC / 5 Ref Frames
Format settings, CABAC         : Yes
Format settings, Reference fra : 5 frames
Codec ID                       : V_MPEG4/ISO/AVC
Duration                       : 2 h 10 min
Bit rate                       : 899 kb/s
Width                          : 1 280 pixels
Height                         : 534 pixels
Display aspect ratio           : 2.40:1
Frame rate mode                : Constant
Frame rate                     : 23.976 (24000/1001) FPS
Color space                    : YUV
Chroma subsampling             : 4:2:0
Bit depth                      : 8 bits
Scan type                      : Progressive
Bits/(Pixel*Frame)             : 0.055
Stream size                    : 839 MiB (78%)
Title                          : GOPI SAHI
Writing library                : x264 core 157 r2935 545de2f

Audio #1
ID                             : 2
Format                         : AAC LC
Format/Info                    : Advanced Audio Codec Low Complexity
Codec ID                       : A_AAC-2
Duration                       : 2 h 10 min
Bit rate                       : 96.0 kb/s
Channel(s)                     : 2 channels
Channel layout                 : L R
Sampling rate                  : 48.0 kHz
Frame rate                     : 46.875 FPS (1024 SPF)
Compression mode               : Lossy
Delay relative to video        : 980 ms
Stream size                    : 90.0 MiB (8%)
Title                          : GOPI SAHI
Language                       : Hindi
Default                        : Yes
Forced                         : No

Audio #2
ID                             : 3
Format                         : AAC LC
Format/Info                    : Advanced Audio Codec Low Complexity
Codec ID                       : A_AAC-2
Duration                       : 2 h 10 min
Bit rate                       : 96.0 kb/s
Channel(s)                     : 2 channels
Channel layout                 : L R
Sampling rate                  : 48.0 kHz
Frame rate                     : 46.875 FPS (1024 SPF)
Compression mode               : Lossy
Delay relative to video        : -21 ms
Stream size                    : 90.0 MiB (8%)
Title                          : GOPI SAHI
Language                       : English
Default                        : No
Forced                         : No

Text #1
ID                             : 4
Format                         : PGS
Muxing mode                    : zlib
Codec ID                       : S_HDMV/PGS
Codec ID/Info                  : Picture based subtitle format used on BDs/HD-DVDs
Duration                       : 1 h 55 min
Bit rate                       : 15.8 kb/s
Count of elements              : 2214
Stream size                    : 13.0 MiB (1%)
Title                          : GOPI SAHI
Language                       : Hindi
Default                        : Yes
Forced                         : Yes

Text #2
ID                             : 5
Format                         : PGS
Muxing mode                    : zlib
Codec ID                       : S_HDMV/PGS
Codec ID/Info                  : Picture based subtitle format used on BDs/HD-DVDs
Duration                       : 2 h 9 min
Bit rate                       : 18.4 kb/s
Count of elements              : 2062
Stream size                    : 17.0 MiB (2%)
Title                          : GOPI SAHI
Language                       : English
Default                        : No
Forced                         : No

Text #3
ID                             : 6
Format                         : PGS
Muxing mode                    : zlib
Codec ID                       : S_HDMV/PGS
Codec ID/Info                  : Picture based subtitle format used on BDs/HD-DVDs
Duration                       : 1 h 55 min
Bit rate                       : 39.5 kb/s
Count of elements              : 2256
Stream size                    : 32.6 MiB (3%)
Title                          : GOPI SAHI
Language                       : Tamil
Default                        : No
Forced                         : No

Text #4
ID                             : 7
Format                         : PGS
Muxing mode                    : zlib
Codec ID                       : S_HDMV/PGS
Codec ID/Info                  : Picture based subtitle format used on BDs/HD-DVDs
Duration                       : 1 h 55 min
Bit rate                       : 25.5 kb/s
Count of elements              : 2250
Stream size                    : 21.0 MiB (2%)
Title                          : GOPI SAHI
Language                       : Telugu
Default                        : No
Forced                         : No

Menu
00:00:00.000                   : en:Chapter 1
00:02:58.220                   : en:Chapter 2
00:06:21.172                   : en:Chapter 3
00:10:21.871                   : en:Chapter 4
00:14:27.992                   : en:Chapter 5
00:20:05.621                   : en:Chapter 6
00:22:47.783                   : en:Chapter 7
00:25:38.620                   : en:Chapter 8
00:30:46.803                   : en:Chapter 9
00:34:33.655                   : en:Chapter 10
00:40:32.263                   : en:Chapter 11
00:45:52.249                   : en:Chapter 12
00:50:15.471                   : en:Chapter 13
00:54:41.027                   : en:Chapter 14
00:59:01.246                   : en:Chapter 15
01:03:42.068                   : en:Chapter 16
01:07:06.063                   : en:Chapter 17
01:11:24.488                   : en:Chapter 18
01:14:38.932                   : en:Chapter 19
01:23:40.849                   : en:Chapter 20
01:29:17.727                   : en:Chapter 21
01:31:25.021                   : en:Chapter 22
01:36:37.666                   : en:Chapter 23
01:41:09.104                   : en:Chapter 24
01:46:42.312                   : en:Chapter 25
01:50:18.361                   : en:Chapter 26
01:54:16.683                   : en:Chapter 27
01:58:12.877                   : en:Chapter 28