Harry Potter and the Deathly Hallows- Part 1 2010 x264 720p Esub BluRay Dual Audio English Hindi GOPI SAHI

Harry Potter and the Deathly Hallows: Part 1 (2010)

 
As Harry (Daniel Radcliffe), Ron (Rupert Grint), and Hermione (Emma Watson) race against time and evil to destroy the Horcruxes, they uncover the existence of the three most powerful objects in the wizarding world: the Deathly Hallows.
EN

Director:

David Yates

Writers:

Steve Kloves (screenplay), J.K. Rowling (novel)

7.7/10
463,794

Directed byDavid Yates
Produced by
Screenplay bySteve Kloves
Based onHarry Potter and the Deathly Hallows
by J. K. Rowling
Starring
Music byAlexandre Desplat
CinematographyEduardo Serra
Edited byMark Day
Production
company
Distributed byWarner Bros. Pictures
Release date
Running time
146 minutes[2]
Country
  • United Kingdom
  • United States
LanguageEnglish
Budget$250 million
(Shared with Part 2)[3][4]
Box office$977.8 million[5]



Harry Potter and the Deathly Hallows- Part 1 2010 GOPI SAHI

Format                         : Matroska
Format version                 : Version 4
File size                      : 1.18 GiB
Duration                       : 2 h 26 min
Overall bit rate               : 1 160 kb/s
Movie name                     : Harry Potter and the Deathly Hallows: Part 1 2010 GOPI SAHI
Encoded date                   : UTC 2020-09-13 03:20:24

Video
ID                             : 1
Format                         : AVC
Format/Info                    : Advanced Video Codec
Format profile                 : [email protected]
Format settings                : CABAC / 5 Ref Frames
Format settings, CABAC         : Yes
Format settings, Reference fra : 5 frames
Codec ID                       : V_MPEG4/ISO/AVC
Duration                       : 2 h 26 min
Bit rate                       : 899 kb/s
Width                          : 1 280 pixels
Height                         : 534 pixels
Display aspect ratio           : 2.40:1
Frame rate mode                : Constant
Frame rate                     : 23.976 (24000/1001) FPS
Color space                    : YUV
Chroma subsampling             : 4:2:0
Bit depth                      : 8 bits
Scan type                      : Progressive
Bits/(Pixel*Frame)             : 0.055
Stream size                    : 939 MiB (78%)
Title                          : GOPI SAHI
Writing library                : x264 core 157 r2935 545de2f

Audio #1
ID                             : 2
Format                         : AAC LC
Format/Info                    : Advanced Audio Codec Low Complexity
Codec ID                       : A_AAC-2
Duration                       : 2 h 26 min
Bit rate                       : 96.0 kb/s
Channel(s)                     : 2 channels
Channel layout                 : L R
Sampling rate                  : 48.0 kHz
Frame rate                     : 46.875 FPS (1024 SPF)
Compression mode               : Lossy
Delay relative to video        : 982 ms
Stream size                    : 101 MiB (8%)
Title                          : GOPI SAHI
Language                       : Hindi
Default                        : Yes
Forced                         : No

Audio #2
ID                             : 3
Format                         : AAC LC
Format/Info                    : Advanced Audio Codec Low Complexity
Codec ID                       : A_AAC-2
Duration                       : 2 h 26 min
Bit rate                       : 96.0 kb/s
Channel(s)                     : 2 channels
Channel layout                 : L R
Sampling rate                  : 48.0 kHz
Frame rate                     : 46.875 FPS (1024 SPF)
Compression mode               : Lossy
Delay relative to video        : -21 ms
Stream size                    : 101 MiB (8%)
Title                          : GOPI SAHI
Language                       : English
Default                        : No
Forced                         : No

Text #1
ID                             : 4
Format                         : PGS
Muxing mode                    : zlib
Codec ID                       : S_HDMV/PGS
Codec ID/Info                  : Picture based subtitle format used on BDs/HD-DVDs
Duration                       : 2 h 11 min
Bit rate                       : 20.0 kb/s
Count of elements              : 3202
Stream size                    : 18.8 MiB (2%)
Title                          : GOPI SAHI
Language                       : Hindi
Default                        : Yes
Forced                         : Yes

Text #2
ID                             : 5
Format                         : PGS
Muxing mode                    : zlib
Codec ID                       : S_HDMV/PGS
Codec ID/Info                  : Picture based subtitle format used on BDs/HD-DVDs
Duration                       : 2 h 25 min
Bit rate                       : 25.1 kb/s
Count of elements              : 2896
Stream size                    : 26.2 MiB (2%)
Title                          : GOPI SAHI
Language                       : English
Default                        : No
Forced                         : No

Text #3
ID                             : 6
Format                         : PGS
Muxing mode                    : zlib
Codec ID                       : S_HDMV/PGS
Codec ID/Info                  : Picture based subtitle format used on BDs/HD-DVDs
Duration                       : 2 h 11 min
Bit rate                       : 48.4 kb/s
Count of elements              : 3354
Stream size                    : 45.7 MiB (4%)
Title                          : GOPI SAHI
Language                       : Tamil
Default                        : No
Forced                         : No

Text #4
ID                             : 7
Format                         : PGS
Muxing mode                    : zlib
Codec ID                       : S_HDMV/PGS
Codec ID/Info                  : Picture based subtitle format used on BDs/HD-DVDs
Duration                       : 2 h 11 min
Bit rate                       : 32.2 kb/s
Count of elements              : 3156
Stream size                    : 30.3 MiB (2%)
Title                          : GOPI SAHI
Language                       : Telugu
Default                        : No
Forced                         : No

Menu
00:00:00.000                   : en:Dark Times
00:04:18.508                   : en:Dark Lord Ascending
00:09:46.628                   : en:The Seven Potters
00:15:16.207                   : en:Aerial Ambush
00:19:13.569                   : en:Fallen Warrior
00:26:04.229                   : en:Dumbledore's Will
00:31:37.771                   : en:The Wedding
00:35:43.308                   : en:A Place to Hide
00:41:37.537                   : en:Kreacher's Tale
00:45:45.618                   : en:Theft of a Thief
00:50:14.094                   : en:Ministry Interior
00:55:02.716                   : en:Secret Files
00:58:31.174                   : en:Lifting the Locket
01:03:41.359                   : en:Forest Fugitives
01:10:02.239                   : en:Getting Too Close
01:14:30.966                   : en:Broken Ranks
01:18:48.891                   : en:Invitation to Dance
01:22:17.641                   : en:Clues Revealed
01:24:55.131                   : en:Godric's Hollow
01:28:03.236                   : en:Bathilda's Secret
01:32:34.215                   : en:The Silver Doe
01:37:40.271                   : en:Sword of Gryffindor
01:42:37.609                   : en:Lighting the Way Back
01:47:54.176                   : en:The Three Brothers
01:53:48.154                   : en:The Deathly Hallows
01:57:31.002                   : en:Snatchers Strike
02:01:28.030                   : en:Malfoy Manor
02:05:42.201                   : en:Dobby has No Master
02:09:42.774                   : en:Sleeping Friend
02:13:16.071                   : en:Grave Robber
02:14:47.162                   : en:End Credits