Harry Potter and the Chamber of Secrets 2002 Ult-Ext x264 720p Esub BluRay Dual Audio English Hindi GOPI SAHI

Harry Potter and the Chamber of Secrets (2002)

An ancient prophecy seems to be coming true when a mysterious presence begins stalking the corridors of a school of magic and leaving its victims paralyzed.
EN

Director:

Chris Columbus

Writers:

J.K. Rowling (novel), Steve Kloves (screenplay)
7.4/10
536,683
Directed byChris Columbus
Produced byDavid Heyman
Screenplay bySteve Kloves
Based onHarry Potter and the Chamber of Secrets
by J. K. Rowling
Starring
Music byJohn Williams
CinematographyRoger Pratt
Edited byPeter Honess
Production
companies
Distributed byWarner Bros. Pictures[2]
Release date
Running time
161 minutes[3]
Country
  • United Kingdom
  • United States
LanguageEnglish
Budget$100 million[2]
Box office$880.3 million[2]






Harry Potter and the Chamber of Secrets 2002 Ult-Ext GOPI SAHI

Format                         : Matroska
Format version                 : Version 4
File size                      : 1.35 GiB
Duration                       : 2 h 54 min
Overall bit rate               : 1 107 kb/s
Movie name                     : Harry Potter and the Chamber of Secrets 2002 Ult-Ext GOPI SAHI
Encoded date                   : UTC 2020-09-13 03:16:56

Video
ID                             : 1
Format                         : AVC
Format/Info                    : Advanced Video Codec
Format profile                 : [email protected]
Format settings                : CABAC / 5 Ref Frames
Format settings, CABAC         : Yes
Format settings, Reference fra : 5 frames
Codec ID                       : V_MPEG4/ISO/AVC
Duration                       : 2 h 54 min
Bit rate                       : 899 kb/s
Width                          : 1 280 pixels
Height                         : 534 pixels
Display aspect ratio           : 2.40:1
Frame rate mode                : Constant
Frame rate                     : 23.976 (24000/1001) FPS
Color space                    : YUV
Chroma subsampling             : 4:2:0
Bit depth                      : 8 bits
Scan type                      : Progressive
Bits/(Pixel*Frame)             : 0.055
Stream size                    : 1.09 GiB (81%)
Title                          : GOPI SAHI
Writing library                : x264 core 157 r2935 545de2f

Audio #1
ID                             : 2
Format                         : AAC LC
Format/Info                    : Advanced Audio Codec Low Complexity
Codec ID                       : A_AAC-2
Duration                       : 2 h 54 min
Bit rate                       : 96.0 kb/s
Channel(s)                     : 2 channels
Channel layout                 : L R
Sampling rate                  : 48.0 kHz
Frame rate                     : 46.875 FPS (1024 SPF)
Compression mode               : Lossy
Delay relative to video        : -21 ms
Stream size                    : 120 MiB (9%)
Title                          : GOPI SAHI
Language                       : Hindi
Default                        : Yes
Forced                         : No

Audio #2
ID                             : 3
Format                         : AAC LC
Format/Info                    : Advanced Audio Codec Low Complexity
Codec ID                       : A_AAC-2
Duration                       : 2 h 54 min
Bit rate                       : 96.0 kb/s
Channel(s)                     : 2 channels
Channel layout                 : L R
Sampling rate                  : 48.0 kHz
Frame rate                     : 46.875 FPS (1024 SPF)
Compression mode               : Lossy
Delay relative to video        : -21 ms
Stream size                    : 120 MiB (9%)
Title                          : GOPI SAHI
Language                       : English
Default                        : No
Forced                         : No

Text
ID                             : 4
Format                         : PGS
Muxing mode                    : zlib
Codec ID                       : S_HDMV/PGS
Codec ID/Info                  : Picture based subtitle format used on BDs/HD-DVDs
Duration                       : 2 h 53 min
Bit rate                       : 27.4 kb/s
Count of elements              : 3494
Stream size                    : 33.9 MiB (2%)
Title                          : GOPI SAHI
Language                       : English
Default                        : Yes
Forced                         : Yes

Menu
00:00:00.000                   : :In a Cage
00:03:00.972                   : :Dobby's Warning
00:08:37.017                   : :Car Rescue
00:11:31.024                   : :The Burrow
00:14:48.721                   : :To Diagon Aley
00:21:20.237                   : :Flourish and Blotts
00:25:38.454                   : :Flying to Hogwarts
00:29:31.520                   : :Whomping Willow
00:32:32.242                   : :Not Expelled...Today
00:35:25.373                   : :Mandrakes; Ron's Howler
00:39:50.805                   : :Gilderoy Lockhart
00:43:52.547                   : :Mudbloods and Murmurs
00:48:40.126                   : :Writing on the Wall
00:54:08.287                   : :About the Chamber
00:58:08.276                   : :Rogue Bludger
01:04:08.595                   : :No Longer Safe
01:09:25.495                   : :Dueling Club
01:14:12.740                   : :A Parselmouth
01:20:33.078                   : :Nothing to Tell
01:25:59.321                   : :Polyjuice Potion
01:31:56.886                   : :Harry and Ron Transformed
01:36:22.485                   : :The Diary
01:41:54.984                   : :Tom Riddle
01:46:02.815                   : :Petrified
01:50:33.377                   : :Cornelius Fudge
01:55:39.558                   : :Aragog
02:00:30.473                   : :Spider Attack
02:04:36.844                   : :Missing
02:08:55.061                   : :Chamber of Secrets
02:14:22.137                   : :Backfire
02:17:38.625                   : :Heir of Slytherin
02:23:01.198                   : :The Basilisk
02:28:01.289                   : :Healing Powers
02:31:34.794                   : :Out of the Hat
02:34:49.071                   : :Dobby's Reward
02:40:04.303                   : :Welcome Back
02:45:12.194                   : :End Credits