Halloween 2018 x264 720p Esub BluRay Dual Audio English Hindi GOPI SAHI

Halloween (2018)

 
 
 
Laurie Strode confronts her long-time foe Michael Myers, the masked figure who has haunted her since she narrowly escaped his killing spree on Halloween night four decades ago.
EN

Director:

David Gordon Green

Writers:

John Carpenter (based on characters created by), Debra Hill (based on characters created by) | 3 more credits »
 
6.5/10
113,237
 
 
Directed byDavid Gordon Green
Produced by
Written by
Based onCharacters
by John Carpenter
Debra Hill
Starring
Music by
CinematographyMichael Simmonds
Edited byTim Alverson
Production
companies
Distributed byUniversal Pictures
Release date
  • September 8, 2018 (TIFF)
  • October 19, 2018 (United States)
Running time
106 minutes[1]
CountryUnited States
LanguageEnglish
Budget$10–15 million[2][3]
Box office$255.5 million[2]



Halloween 2018 x264 720p Esub BluRay Dual Audio English Hindi GOPI SAHI

Format                         : Matroska
Format version                 : Version 4
File size                      : 845 MiB
Duration                       : 1 h 45 min
Overall bit rate               : 1 116 kb/s
Movie name                     : Halloween 2018 GOPI SAHI
Encoded date                   : UTC 2020-09-26 03:41:34

Video
ID                             : 1
Format                         : AVC
Format/Info                    : Advanced Video Codec
Format profile                 : [email protected]
Format settings                : CABAC / 5 Ref Frames
Format settings, CABAC         : Yes
Format settings, Reference fra : 5 frames
Codec ID                       : V_MPEG4/ISO/AVC
Duration                       : 1 h 45 min
Bit rate                       : 899 kb/s
Width                          : 1 280 pixels
Height                         : 538 pixels
Display aspect ratio           : 2.40:1
Frame rate mode                : Constant
Frame rate                     : 23.976 (24000/1001) FPS
Color space                    : YUV
Chroma subsampling             : 4:2:0
Bit depth                      : 8 bits
Scan type                      : Progressive
Bits/(Pixel*Frame)             : 0.054
Stream size                    : 680 MiB (81%)
Title                          : GOPI SAHI
Writing library                : x264 core 157 r2935 545de2f

Audio #1
ID                             : 2
Format                         : AAC LC
Format/Info                    : Advanced Audio Codec Low Complexity
Codec ID                       : A_AAC-2
Duration                       : 1 h 45 min
Bit rate                       : 96.0 kb/s
Channel(s)                     : 2 channels
Channel layout                 : L R
Sampling rate                  : 48.0 kHz
Frame rate                     : 46.875 FPS (1024 SPF)
Compression mode               : Lossy
Delay relative to video        : 74 ms
Stream size                    : 73.0 MiB (9%)
Title                          : GOPI SAHI
Language                       : Hindi
Default                        : Yes
Forced                         : No

Audio #2
ID                             : 3
Format                         : AAC LC
Format/Info                    : Advanced Audio Codec Low Complexity
Codec ID                       : A_AAC-2
Duration                       : 1 h 45 min
Bit rate                       : 96.0 kb/s
Channel(s)                     : 2 channels
Channel layout                 : L R
Sampling rate                  : 48.0 kHz
Frame rate                     : 46.875 FPS (1024 SPF)
Compression mode               : Lossy
Delay relative to video        : -21 ms
Stream size                    : 72.9 MiB (9%)
Title                          : GOPI SAHI
Language                       : English
Default                        : No
Forced                         : No

Text #1
ID                             : 4
Format                         : PGS
Muxing mode                    : zlib
Codec ID                       : S_HDMV/PGS
Codec ID/Info                  : Picture based subtitle format used on BDs/HD-DVDs
Duration                       : 1 h 44 min
Bit rate                       : 24.6 kb/s
Count of elements              : 2334
Stream size                    : 18.4 MiB (2%)
Title                          : GOPI SAHI
Language                       : Hindi
Default                        : Yes
Forced                         : Yes

Text #2
ID                             : 5
Format                         : PGS
Muxing mode                    : zlib
Codec ID                       : S_HDMV/PGS
Codec ID/Info                  : Picture based subtitle format used on BDs/HD-DVDs
Duration                       : 1 h 44 min
Bit rate                       : 42.8 kb/s
Count of elements              : 3064
Stream size                    : 32.0 MiB (4%)
Title                          : GOPI SAHI
Language                       : English
Default                        : No
Forced                         : No

Menu
00:00:00.000                   : :Chapter 1
00:08:42.605                   : :Chapter 2
00:14:26.949                   : :Chapter 3
00:20:46.996                   : :Chapter 4
00:23:17.855                   : :Chapter 5
00:27:45.080                   : :Chapter 6
00:32:55.724                   : :Chapter 7
00:40:51.366                   : :Chapter 8
00:44:41.053                   : :Chapter 9
00:48:26.404                   : :Chapter 10
00:53:26.453                   : :Chapter 11
00:59:18.597                   : :Chapter 12
01:03:22.340                   : :Chapter 13
01:07:29.796                   : :Chapter 14
01:14:46.524                   : :Chapter 15
01:18:10.728                   : :Chapter 16
01:22:04.837                   : :Chapter 17
01:30:09.905                   : :Chapter 18
01:35:33.394                   : :Chapter 19
01:40:41.494                   : :Chapter 20