Gorgeous 1999 x264 720p Esub BluRay Dual Audio Hindi Chinese GOPI SAHI

Gorgeous (1999)

Boh lei chun (original title)
A romantic girl travels to Hong Kong in search of certain love but instead meets a kind-hearted professional fighter for whom she begins to fall instead.
EN

Director:

Vincent Kok

Writers:

Jackie Chan, Ivy Ho (story) | 2 more credits »
6.1/10


Directed byVincent Kok
Produced byJackie Chan
Written by
  • Jackie Chan
  • Vincent Kok
  • Yiu Fai Lo
Starring
Music byWong Dang-yi
CinematographyCheung Man-po
Edited by
Distributed byGolden Harvest
Tristar Pictures
Release date
  • 12 February 1999
Running time
120 minutes
CountryHong Kong
LanguageCantonese
Mandarin
Hokkien
English
Box officeHK$40,545,889






Gorgeous 1999 x264 720p Esub BluRay Dual Audio Hindi Chinese GOPI SAHI

Format                         : Matroska
Format version                 : Version 4
File size                      : 943 MiB
Duration                       : 1 h 59 min
Overall bit rate               : 1 102 kb/s
Movie name                     : Gorgeous 1999 GOPI SAHI
Encoded date                   : UTC 2020-09-18 03:05:31
Writing application            : mkvmerge v46.0.0 ('No Deeper Escape') 32-bit
Writing library                : libebml v1.3.10 + libmatroska v1.5.2

Video
ID                             : 1
Format                         : AVC
Format/Info                    : Advanced Video Codec
Format profile                 : [email protected]
Format settings                : CABAC / 5 Ref Frames
Format settings, CABAC         : Yes
Format settings, Reference fra : 5 frames
Codec ID                       : V_MPEG4/ISO/AVC
Duration                       : 1 h 59 min
Bit rate                       : 899 kb/s
Width                          : 1 280 pixels
Height                         : 544 pixels
Display aspect ratio           : 2.35:1
Frame rate mode                : Constant
Frame rate                     : 24.000 FPS
Color space                    : YUV
Chroma subsampling             : 4:2:0
Bit depth                      : 8 bits
Scan type                      : Progressive
Bits/(Pixel*Frame)             : 0.054
Stream size                    : 769 MiB (82%)
Title                          : GOPI SAHI
Writing library                : x264 core 157 r2935 545de2f

Audio #1
ID                             : 2
Format                         : AAC LC
Format/Info                    : Advanced Audio Codec Low Complexity
Codec ID                       : A_AAC-2
Duration                       : 1 h 59 min
Bit rate                       : 96.0 kb/s
Channel(s)                     : 2 channels
Channel layout                 : L R
Sampling rate                  : 48.0 kHz
Frame rate                     : 46.875 FPS (1024 SPF)
Compression mode               : Lossy
Delay relative to video        : -21 ms
Stream size                    : 82.5 MiB (9%)
Title                          : GOPI SAHI
Language                       : Hindi
Default                        : Yes
Forced                         : No

Audio #2
ID                             : 3
Format                         : AAC LC
Format/Info                    : Advanced Audio Codec Low Complexity
Codec ID                       : A_AAC-2
Duration                       : 1 h 59 min
Bit rate                       : 96.0 kb/s
Channel(s)                     : 2 channels
Channel layout                 : L R
Sampling rate                  : 48.0 kHz
Frame rate                     : 46.875 FPS (1024 SPF)
Compression mode               : Lossy
Delay relative to video        : -21 ms
Stream size                    : 82.6 MiB (9%)
Title                          : GOPI SAHI
Language                       : Chinese
Default                        : No
Forced                         : No

Text
ID                             : 4
Format                         : PGS
Muxing mode                    : zlib
Codec ID                       : S_HDMV/PGS
Codec ID/Info                  : Picture based subtitle format used on BDs/HD-DVDs
Duration                       : 1 h 56 min
Bit rate                       : 24.3 kb/s
Count of elements              : 2406
Stream size                    : 20.2 MiB (2%)
Title                          : GOPI SAHI
Language                       : English
Default                        : Yes
Forced                         : Yes

Menu
00:00:00.000                   : :Chapter 1
00:09:13.125                   : :Chapter 2
00:21:21.625                   : :Chapter 3
00:30:31.750                   : :Chapter 4
00:40:30.875                   : :Chapter 5
00:50:10.875                   : :Chapter 6
00:59:51.333                   : :Chapter 7
01:07:57.792                   : :Chapter 8
01:21:00.292                   : :Chapter 9
01:31:23.792                   : :Chapter 10
01:43:27.250                   : :Chapter 11
01:50:03.000                   : :Chapter 12