GoldenEye 1995 x264 720p Esub BluRay Dual Audio English Hindi GOPI SAHI

GoldenEye (1995)


Years after a friend and fellow 00 agent is killed on a joint mission, a secret space based weapons program known as "GoldenEye" is stolen. James Bond sets out to stop a Russian crime syndicate from using the weapon.
EN

Director:

Martin Campbell

Writers:

Ian Fleming (characters), Michael France (story) | 2 more credits »

7.2/10
235,013
Directed byMartin Campbell
Produced by
Screenplay by
Story byMichael France
Based onJames Bond
by Ian Fleming
Starring
Music byÉric Serra
CinematographyPhil Méheux
Edited byTerry Rawlings
Production
company
Distributed by
Release date
  • 13 November 1995 (Los Angeles, premiere)
  • 17 November 1995 (United States)
  • 24 November 1995 (United Kingdom)
Running time
130 minutes
CountryUnited Kingdom[1]
United States
LanguageEnglish
Russian
Spanish
Budget$60 million
Box office$352.1 million[2]




GoldenEye 1995 GOPI SAHI

Format                         : Matroska
Format version                 : Version 4
File size                      : 1.01 GiB
Duration                       : 2 h 10 min
Overall bit rate               : 1 107 kb/s
Movie name                     : GoldenEye 1995 GOPI SAHI
Encoded date                   : UTC 2020-09-17 03:52:05

Video
ID                             : 1
Format                         : AVC
Format/Info                    : Advanced Video Codec
Format profile                 : [email protected]
Format settings                : CABAC / 5 Ref Frames
Format settings, CABAC         : Yes
Format settings, Reference fra : 5 frames
Codec ID                       : V_MPEG4/ISO/AVC
Duration                       : 2 h 10 min
Bit rate                       : 899 kb/s
Width                          : 1 280 pixels
Height                         : 546 pixels
Display aspect ratio           : 2.35:1
Frame rate mode                : Constant
Frame rate                     : 23.976 (24000/1001) FPS
Color space                    : YUV
Chroma subsampling             : 4:2:0
Bit depth                      : 8 bits
Scan type                      : Progressive
Bits/(Pixel*Frame)             : 0.054
Stream size                    : 836 MiB (81%)
Title                          : GOPI SAHI
Writing library                : x264 core 157 r2935 545de2f

Audio #1
ID                             : 2
Format                         : AAC LC
Format/Info                    : Advanced Audio Codec Low Complexity
Codec ID                       : A_AAC-2
Duration                       : 2 h 10 min
Bit rate                       : 96.0 kb/s
Channel(s)                     : 2 channels
Channel layout                 : L R
Sampling rate                  : 48.0 kHz
Frame rate                     : 46.875 FPS (1024 SPF)
Compression mode               : Lossy
Delay relative to video        : -21 ms
Stream size                    : 89.8 MiB (9%)
Title                          : GOPI SAHI
Language                       : Hindi
Default                        : Yes
Forced                         : No

Audio #2
ID                             : 3
Format                         : AAC LC
Format/Info                    : Advanced Audio Codec Low Complexity
Codec ID                       : A_AAC-2
Duration                       : 2 h 10 min
Bit rate                       : 96.0 kb/s
Channel(s)                     : 2 channels
Channel layout                 : L R
Sampling rate                  : 48.0 kHz
Frame rate                     : 46.875 FPS (1024 SPF)
Compression mode               : Lossy
Delay relative to video        : -21 ms
Stream size                    : 89.7 MiB (9%)
Title                          : GOPI SAHI
Language                       : English
Default                        : No
Forced                         : No

Text #1
ID                             : 4
Format                         : PGS
Muxing mode                    : zlib
Codec ID                       : S_HDMV/PGS
Codec ID/Info                  : Picture based subtitle format used on BDs/HD-DVDs
Duration                       : 2 h 6 min
Bit rate                       : 20.8 kb/s
Count of elements              : 1636
Stream size                    : 18.9 MiB (2%)
Title                          : GOPI SAHI
Language                       : English
Default                        : Yes
Forced                         : Yes

Text #2
ID                             : 5
Format                         : PGS
Muxing mode                    : zlib
Codec ID                       : S_HDMV/PGS
Codec ID/Info                  : Picture based subtitle format used on BDs/HD-DVDs
Duration                       : 2 h 6 min
Bit rate                       : 23.6 kb/s
Count of elements              : 1962
Stream size                    : 21.4 MiB (2%)
Title                          : GOPI SAHI
Language                       : English
Default                        : No
Forced                         : No

Menu
00:00:00.000                   : :Opening Sequence
00:10:30.130                   : :Main Titles
00:13:20.174                   : :Aston Martin DB-5
00:17:06.317                   : :Baccarat with Xenia
00:24:23.420                   : :Test-Driving a Tiger
00:27:56.091                   : :Boris and Natalya
00:31:05.864                   : :Aiming GoldenEye
00:36:24.057                   : :After Hours Briefing
00:38:57.335                   : :Survivor
00:43:19.430                   : :M Informs her Spy
00:48:11.680                   : :St. Petersburg, Russia
00:50:29.276                   : :Q's Latest Gadgets
00:53:08.102                   : :Jake Wade
00:56:08.073                   : :Computerized Warning
00:57:47.005                   : :Getting Even
01:03:42.027                   : :007 gets a grip
01:06:16.055                   : :"Back from the Dead"
01:11:04.969                   : :Trapped in the Tiger
01:13:20.271                   : :Interrogation
01:17:49.456                   : :Archives Ambush
01:19:54.456                   : :All Tanked Up
01:25:07.936                   : :Derailing Evil Plans
01:30:50.612                   : :Escape
01:34:26.327                   : :Wade drops in
01:40:12.298                   : :Crashing in Cuba
01:44:34.268                   : :Next Target: London
01:47:31.445                   : :Stopping a Satellite
01:50:41.343                   : :Philosophical Face-Off
01:56:01.246                   : :Taking a breather
02:00:53.705                   : :Spy versus Spy
02:04:35.009                   : :Alone at Last
02:06:33.044                   : :End Credits