Fear 1996 x264 720p Esub BluRay Dual Audio English Hindi GOPI SAHI


Fear (1996)


When Nicole met David; handsome, charming, affectionate, he was everything. It seemed perfect, but soon she sees that David has a darker side. And his adoration turns to obsession, their dream into a nightmare, and her love into fear.
EN


6.3/10

Directed byJames Foley
Produced byBrian Grazer
Written byChristopher Crowe
Starring
Music byCarter Burwell
CinematographyThomas Kloss
Edited byDavid Brenner
Production
company
Distributed byUniversal Pictures
Release date
  • April 12, 1996
Running time
96 minutes
CountryUnited States
LanguageEnglish
Budget$6.5 million
Box office$20.8 million



Fear 1996 x264 720p Esub BluRay Dual Audio English Hindi GOPI SAHI

Format                         : Matroska
Format version                 : Version 4
File size                      : 773 MiB
Duration                       : 1 h 36 min
Overall bit rate               : 1 116 kb/s
Movie name                     : Fear 1996 GOPI SAHI
Encoded date                   : UTC 2020-09-06 08:31:41

Video
ID                             : 1
Format                         : AVC
Format/Info                    : Advanced Video Codec
Format profile                 : [email protected]
Format settings                : CABAC / 5 Ref Frames
Format settings, CABAC         : Yes
Format settings, Reference fra : 5 frames
Codec ID                       : V_MPEG4/ISO/AVC
Duration                       : 1 h 36 min
Bit rate                       : 899 kb/s
Width                          : 1 280 pixels
Height                         : 544 pixels
Display aspect ratio           : 2.35:1
Frame rate mode                : Constant
Frame rate                     : 23.976 (24000/1001) FPS
Color space                    : YUV
Chroma subsampling             : 4:2:0
Bit depth                      : 8 bits
Scan type                      : Progressive
Bits/(Pixel*Frame)             : 0.054
Stream size                    : 623 MiB (81%)
Title                          : GOPI SAHI
Writing library                : x264 core 157 r2935 545de2f

Audio #1
ID                             : 2
Format                         : AAC LC
Format/Info                    : Advanced Audio Codec Low Complexity
Codec ID                       : A_AAC-2
Duration                       : 1 h 36 min
Bit rate                       : 96.0 kb/s
Channel(s)                     : 2 channels
Channel layout                 : L R
Sampling rate                  : 48.0 kHz
Frame rate                     : 46.875 FPS (1024 SPF)
Compression mode               : Lossy
Delay relative to video        : -14 ms
Stream size                    : 66.8 MiB (9%)
Title                          : GOPI SAHI
Language                       : Hindi
Default                        : Yes
Forced                         : No

Audio #2
ID                             : 3
Format                         : AAC LC
Format/Info                    : Advanced Audio Codec Low Complexity
Codec ID                       : A_AAC-2
Duration                       : 1 h 36 min
Bit rate                       : 96.0 kb/s
Channel(s)                     : 2 channels
Channel layout                 : L R
Sampling rate                  : 48.0 kHz
Frame rate                     : 46.875 FPS (1024 SPF)
Compression mode               : Lossy
Delay relative to video        : -21 ms
Stream size                    : 66.8 MiB (9%)
Title                          : GOPI SAHI
Language                       : English
Default                        : No
Forced                         : No

Text #1
ID                             : 4
Format                         : PGS
Muxing mode                    : zlib
Codec ID                       : S_HDMV/PGS
Codec ID/Info                  : Picture based subtitle format used on BDs/HD-DVDs
Duration                       : 1 h 35 min
Bit rate                       : 20.3 kb/s
Count of elements              : 1782
Stream size                    : 13.9 MiB (2%)
Title                          : GOPI SAHI
Language                       : Hindi
Default                        : No
Forced                         : No

Text #2
ID                             : 5
Format                         : PGS
Muxing mode                    : zlib
Codec ID                       : S_HDMV/PGS
Codec ID/Info                  : Picture based subtitle format used on BDs/HD-DVDs
Duration                       : 1 h 30 min
Bit rate                       : 36.3 kb/s
Count of elements              : 2425
Stream size                    : 23.5 MiB (3%)
Title                          : GOPI SAHI
Language                       : English
Default                        : No
Forced                         : No

Menu
00:00:00.000                   : :Chapter 1
00:04:48.705                   : :Chapter 2
00:11:06.124                   : :Chapter 3
00:15:12.161                   : :Chapter 4
00:19:51.816                   : :Chapter 5
00:21:52.645                   : :Chapter 6
00:30:55.812                   : :Chapter 7
00:35:03.435                   : :Chapter 8
00:39:53.099                   : :Chapter 9
00:48:01.295                   : :Chapter 10
00:52:12.630                   : :Chapter 11
00:59:25.228                   : :Chapter 12
01:05:07.070                   : :Chapter 13
01:09:29.290                   : :Chapter 14
01:15:18.222                   : :Chapter 15
01:22:02.418                   : :Chapter 16
01:26:38.276                   : :Chapter 17
01:32:29.669                   : :Chapter 18