Fantastic Beasts The Crimes of Grindelwald 2018 EXTENDED x264 720p Esub BluRay Dual Audio English Hindi GOPI SAHI

Fantastic Beasts: The Crimes of Grindelwald (2018)


The second installment of the "Fantastic Beasts" series featuring the adventures of Magizoologist Newt Scamander.
EN

Director:

David Yates

Writers:

J.K. Rowling, J.K. Rowling (based upon characters created by)


6.6/10




Directed byDavid Yates
Produced by
Written byJ. K. Rowling
Based onCharacters
by J. K. Rowling
Starring
Music byJames Newton Howard
CinematographyPhilippe Rousselot
Edited byMark Day
Production
company
Distributed byWarner Bros. Pictures
Release date
  • 8 November 2018 (Paris)
  • 16 November 2018 (United States and United Kingdom)
Running time
134 minutes[1]
Country
  • United States
  • United Kingdom
LanguageEnglish
Budget$200 million[1]
Box office$654.9 million[1]





Fantastic Beasts The Crimes of Grindelwald 2018 EXTENDED GOPI SAHI

Format                         : Matroska
Format version                 : Version 4
File size                      : 1.09 GiB
Duration                       : 2 h 20 min
Overall bit rate               : 1 103 kb/s
Movie name                     : Fantastic Beasts The Crimes of Grindelwald 2018 EXTENDED GOPI SAHI
Encoded date                   : UTC 2020-06-03 08:59:28

Video
ID                             : 1
Format                         : AVC
Format/Info                    : Advanced Video Codec
Format profile                 : [email protected]
Format settings                : CABAC / 5 Ref Frames
Format settings, CABAC         : Yes
Format settings, Reference fra : 5 frames
Codec ID                       : V_MPEG4/ISO/AVC
Duration                       : 2 h 20 min
Bit rate                       : 899 kb/s
Width                          : 1 280 pixels
Height                         : 534 pixels
Display aspect ratio           : 2.40:1
Frame rate mode                : Constant
Frame rate                     : 23.976 (24000/1001) FPS
Color space                    : YUV
Chroma subsampling             : 4:2:0
Bit depth                      : 8 bits
Scan type                      : Progressive
Bits/(Pixel*Frame)             : 0.055
Stream size                    : 906 MiB (82%)
Title                          : GOPI SAHI
Writing library                : x264 core 157 r2935 545de2f

Audio #1
ID                             : 2
Format                         : AAC LC
Format/Info                    : Advanced Audio Codec Low Complexity
Codec ID                       : A_AAC-2
Duration                       : 2 h 20 min
Bit rate                       : 96.0 kb/s
Channel(s)                     : 2 channels
Channel layout                 : L R
Sampling rate                  : 48.0 kHz
Frame rate                     : 46.875 FPS (1024 SPF)
Compression mode               : Lossy
Delay relative to video        : -21 ms
Stream size                    : 97.3 MiB (9%)
Title                          : GOPI SAHI
Language                       : Hindi
Default                        : Yes
Forced                         : No

Audio #2
ID                             : 3
Format                         : AAC LC
Format/Info                    : Advanced Audio Codec Low Complexity
Codec ID                       : A_AAC-2
Duration                       : 2 h 20 min
Bit rate                       : 96.0 kb/s
Channel(s)                     : 2 channels
Channel layout                 : L R
Sampling rate                  : 48.0 kHz
Frame rate                     : 46.875 FPS (1024 SPF)
Compression mode               : Lossy
Delay relative to video        : -21 ms
Stream size                    : 97.2 MiB (9%)
Language                       : English
Default                        : No
Forced                         : No

Text
ID                             : 4
Format                         : PGS
Muxing mode                    : zlib
Codec ID                       : S_HDMV/PGS
Codec ID/Info                  : Picture based subtitle format used on BDs/HD-DVDs
Duration                       : 2 h 20 min
Bit rate                       : 26.8 kb/s
Count of elements              : 3126
Stream size                    : 27.0 MiB (2%)
Title                          : GOPI SAHI
Language                       : English
Default                        : Yes
Forced                         : Yes