Edge of Tomorrow 2014 x264 720p Esub BluRay Dual Audio English Hindi GOPI SAHI

Edge of Tomorrow (2014)

PG-13 | | Action, Adventure, Sci-Fi | 6 June 2014 (USA) 
 
A soldier fighting aliens gets to relive the same day over and over again, the day restarting every time he dies.
EN

Director:

Doug Liman

Writers:

Christopher McQuarrie (screenplay by), Jez Butterworth (screenplay by) | 2 more credits »
7.9/10
586,538
Directed byDoug Liman
Produced by
Screenplay by
Based on
Starring
Music byChristophe Beck
CinematographyDion Beebe
Edited by
  • James Herbert
  • Laura Jennings
Production
companies
Distributed byWarner Bros. Pictures
Release date
  • May 28, 2014 (London IMAX)
  • June 6, 2014 (United States)
Running time
113 minutes[1]
CountryUnited States[2]
LanguageEnglish
Budget$178 million[3]
Box office$370.5 million[3]


Edge of Tomorrow 2014 x264 720p Esub BluRay Dual Audio English Hindi GOPI SAHI

Format                         : Matroska
Format version                 : Version 4
File size                      : 900 MiB
Duration                       : 1 h 53 min
Overall bit rate               : 1 109 kb/s
Movie name                     : Edge of Tomorrow 2014 GOPI SAHI
Encoded date                   : UTC 2020-09-09 02:51:01
Writing application            : mkvmerge v50.0.0 ('Awakenings') 64-bit
Writing library                : libebml v1.4.0 + libmatroska v1.6.2
Attachments                    : Hammer Logo.jpg

Video
ID                             : 1
Format                         : AVC
Format/Info                    : Advanced Video Codec
Format profile                 : [email protected]
Format settings                : CABAC / 5 Ref Frames
Format settings, CABAC         : Yes
Format settings, Reference fra : 5 frames
Codec ID                       : V_MPEG4/ISO/AVC
Duration                       : 1 h 53 min
Bit rate                       : 899 kb/s
Width                          : 1 280 pixels
Height                         : 534 pixels
Display aspect ratio           : 2.40:1
Frame rate mode                : Constant
Frame rate                     : 23.976 (24000/1001) FPS
Color space                    : YUV
Chroma subsampling             : 4:2:0
Bit depth                      : 8 bits
Scan type                      : Progressive
Bits/(Pixel*Frame)             : 0.055
Stream size                    : 729 MiB (81%)
Title                          : GOPI SAHI
Writing library                : x264 core 157 r2935 545de2f

Audio #1
ID                             : 2
Format                         : AAC LC
Format/Info                    : Advanced Audio Codec Low Complexity
Codec ID                       : A_AAC-2
Duration                       : 1 h 53 min
Bit rate                       : 96.0 kb/s
Channel(s)                     : 2 channels
Channel layout                 : L R
Sampling rate                  : 48.0 kHz
Frame rate                     : 46.875 FPS (1024 SPF)
Compression mode               : Lossy
Delay relative to video        : -21 ms
Stream size                    : 78.1 MiB (9%)
Title                          : GOPI SAHI
Language                       : Hindi
Default                        : Yes
Forced                         : No

Audio #2
ID                             : 3
Format                         : AAC LC
Format/Info                    : Advanced Audio Codec Low Complexity
Codec ID                       : A_AAC-2
Duration                       : 1 h 53 min
Bit rate                       : 96.0 kb/s
Channel(s)                     : 2 channels
Channel layout                 : L R
Sampling rate                  : 48.0 kHz
Frame rate                     : 46.875 FPS (1024 SPF)
Compression mode               : Lossy
Delay relative to video        : -21 ms
Stream size                    : 78.2 MiB (9%)
Title                          : GOPI SAHI
Language                       : English
Default                        : No
Forced                         : No

Text
ID                             : 4
Format                         : PGS
Muxing mode                    : zlib
Codec ID                       : S_HDMV/PGS
Codec ID/Info                  : Picture based subtitle format used on BDs/HD-DVDs
Duration                       : 59 min 28 s
Bit rate                       : 62.5 kb/s
Count of elements              : 2070
Stream size                    : 26.6 MiB (3%)
Title                          : GOPI SAHI
Language                       : English
Default                        : Yes
Forced                         : No




DWONLOAD LINKS