Blood Diamond 2006 x264 720p Esub BluRay Dual Audio English Hindi GOPI SAHI



Blood Diamond 2006 x264 720p Esub BluRay Dual Audio English Hindi GOPI SAHI



Blood Diamond (2006)


A fisherman, a smuggler, and a syndicate of businessmen match wits over the possession of a priceless diamond.
EN

Director:

Edward Zwick

Writers:

Charles Leavitt (screenplay), Charles Leavitt (story) | 1 more credit »

8.0/10
490,518

Directed byEdward Zwick
Produced by
Written byCharles Leavitt
Story by
  • Charles Leavitt
  • C. Gaby Mitchell
Starring
Music byJames Newton Howard
CinematographyEduardo Serra
Edited bySteven Rosenblum
Production
company
Distributed byWarner Bros.
Release date
  • December 8, 2006 (United States)
  • January 25, 2007 (Germany)
Running time
143 minutes[1]
Country
  • United States
  • Germany[2]
LanguageEnglish[1]
Budget$100 million[3]
Box office$171.7 million[3][4]



Format                         : Matroska
Format version                 : Version 4
File size                      : 1.10 GiB
Duration                       : 2 h 23 min
Overall bit rate               : 1 100 kb/s
Movie name                     : Blood Diamond 2006 GOPI SAHI
Encoded date                   : UTC 2020-09-18 13:53:45
Writing application            : mkvmerge v46.0.0 ('No Deeper Escape') 32-bit
Writing library                : libebml v1.3.10 + libmatroska v1.5.2
Attachments                    : Hammer Logo.jpg

Video
ID                             : 1
Format                         : AVC
Format/Info                    : Advanced Video Codec
Format profile                 : [email protected]
Format settings                : CABAC / 5 Ref Frames
Format settings, CABAC         : Yes
Format settings, Reference fra : 5 frames
Codec ID                       : V_MPEG4/ISO/AVC
Duration                       : 2 h 23 min
Bit rate                       : 899 kb/s
Width                          : 1 280 pixels
Height                         : 530 pixels
Display aspect ratio           : 2.40:1
Frame rate mode                : Constant
Frame rate                     : 23.976 (24000/1001) FPS
Color space                    : YUV
Chroma subsampling             : 4:2:0
Bit depth                      : 8 bits
Scan type                      : Progressive
Bits/(Pixel*Frame)             : 0.055
Stream size                    : 921 MiB (82%)
Title                          : GOPI SAHI
Writing library                : x264 core 157 r2935 545de2f

Audio #1
ID                             : 2
Format                         : AAC LC
Format/Info                    : Advanced Audio Codec Low Complexity
Codec ID                       : A_AAC-2
Duration                       : 2 h 23 min
Bit rate                       : 96.0 kb/s
Channel(s)                     : 2 channels
Channel layout                 : L R
Sampling rate                  : 48.0 kHz
Frame rate                     : 46.875 FPS (1024 SPF)
Compression mode               : Lossy
Delay relative to video        : -21 ms
Stream size                    : 99.0 MiB (9%)
Title                          : GOPI SAHI
Language                       : Hindi
Default                        : Yes
Forced                         : No

Audio #2
ID                             : 3
Format                         : AAC LC
Format/Info                    : Advanced Audio Codec Low Complexity
Codec ID                       : A_AAC-2
Duration                       : 2 h 23 min
Bit rate                       : 96.0 kb/s
Channel(s)                     : 2 channels
Channel layout                 : L R
Sampling rate                  : 48.0 kHz
Frame rate                     : 46.875 FPS (1024 SPF)
Compression mode               : Lossy
Delay relative to video        : -21 ms
Stream size                    : 98.7 MiB (9%)
Title                          : GOPI SAHI
Language                       : English
Default                        : No
Forced                         : No

Text
ID                             : 4
Format                         : PGS
Muxing mode                    : zlib
Codec ID                       : S_HDMV/PGS
Codec ID/Info                  : Picture based subtitle format used on BDs/HD-DVDs
Duration                       : 2 h 12 min
Bit rate                       : 23.7 kb/s
Count of elements              : 2882
Stream size                    : 22.5 MiB (2%)
Title                          : GOPI SAHI
Language                       : English
Default                        : Yes
Forced                         : No