Battleship 2012 x264 720p Esub BluRay Dual Audio English Hindi GOPI SAHI

Battleship (2012)

PG-13 | | Action, Adventure, Sci-Fi | 18 May 2012 (USA)
A fleet of ships is forced to do battle with an armada of unknown origins in order to discover and thwart their destructive goals.
EN

Director:

Peter Berg

5.8/10
233,449
Directed byPeter Berg
Produced by
Written by
  • Jon Hoeber
  • Erich Hoeber
Based onBattleship
Starring
Music bySteve Jablonsky[1]
CinematographyTobias A. Schliessler
Edited by
Production
company
Distributed byUniversal Pictures
Release date
  • April 3, 2012 (Tokyo)
  • May 18, 2012 (United States)
Running time
131 minutes[2]
CountryUnited States
LanguageEnglish
Budget$209–220 million[2][3]
Box office$303 million[2]




Battleship 2012 x264 720p Esub BluRay Dual Audio English Hindi GOPI SAHI

Format                         : Matroska
Format version                 : Version 4
File size                      : 1.01 GiB
Duration                       : 2 h 11 min
Overall bit rate               : 1 104 kb/s
Movie name                     : Battleship 2012 GOPI SAHI
Encoded date                   : UTC 2020-09-03 03:17:15
Writing application            : mkvmerge v46.0.0 ('No Deeper Escape') 32-bit
Writing library                : libebml v1.3.10 + libmatroska v1.5.2

Video
ID                             : 1
Format                         : AVC
Format/Info                    : Advanced Video Codec
Format profile                 : [email protected]
Format settings                : CABAC / 5 Ref Frames
Format settings, CABAC         : Yes
Format settings, Reference fra : 5 frames
Codec ID                       : V_MPEG4/ISO/AVC
Duration                       : 2 h 11 min
Bit rate                       : 899 kb/s
Width                          : 1 280 pixels
Height                         : 534 pixels
Display aspect ratio           : 2.40:1
Frame rate mode                : Constant
Frame rate                     : 23.976 (24000/1001) FPS
Color space                    : YUV
Chroma subsampling             : 4:2:0
Bit depth                      : 8 bits
Scan type                      : Progressive
Bits/(Pixel*Frame)             : 0.055
Stream size                    : 844 MiB (81%)
Title                          : GOPI SAHI
Writing library                : x264 core 157 r2935 545de2f

Audio #1
ID                             : 2
Format                         : AAC LC
Format/Info                    : Advanced Audio Codec Low Complexity
Codec ID                       : A_AAC-2
Duration                       : 2 h 11 min
Bit rate                       : 96.0 kb/s
Channel(s)                     : 2 channels
Channel layout                 : L R
Sampling rate                  : 48.0 kHz
Frame rate                     : 46.875 FPS (1024 SPF)
Compression mode               : Lossy
Delay relative to video        : 4 ms
Stream size                    : 90.6 MiB (9%)
Title                          : GOPI SAHI
Language                       : Hindi
Default                        : Yes
Forced                         : No

Audio #2
ID                             : 3
Format                         : AAC LC
Format/Info                    : Advanced Audio Codec Low Complexity
Codec ID                       : A_AAC-2
Duration                       : 2 h 11 min
Bit rate                       : 96.0 kb/s
Channel(s)                     : 2 channels
Channel layout                 : L R
Sampling rate                  : 48.0 kHz
Frame rate                     : 46.875 FPS (1024 SPF)
Compression mode               : Lossy
Delay relative to video        : -21 ms
Stream size                    : 90.6 MiB (9%)
Title                          : GOPI SAHI
Language                       : English
Default                        : No
Forced                         : No

Text #1
ID                             : 4
Format                         : PGS
Muxing mode                    : zlib
Codec ID                       : S_HDMV/PGS
Codec ID/Info                  : Picture based subtitle format used on BDs/HD-DVDs
Duration                       : 1 h 54 min
Bit rate                       : 174 b/s
Count of elements              : 24
Stream size                    : 146 KiB (0%)
Title                          : GOPI SAHI
Language                       : Hindi
Default                        : Yes
Forced                         : Yes

Text #2
ID                             : 5
Format                         : PGS
Muxing mode                    : zlib
Codec ID                       : S_HDMV/PGS
Codec ID/Info                  : Picture based subtitle format used on BDs/HD-DVDs
Duration                       : 2 h 9 min
Bit rate                       : 33.4 kb/s
Count of elements              : 2979
Stream size                    : 31.0 MiB (3%)
Title                          : GOPI SAHI
Language                       : English
Default                        : No
Forced                         : No

Menu
00:00:00.000                   : :Chapter 1
00:09:24.105                   : :Chapter 2
00:15:04.445                   : :Chapter 3
00:23:08.804                   : :Chapter 4
00:29:44.241                   : :Chapter 5
00:36:26.810                   : :Chapter 6
00:42:01.269                   : :Chapter 7
00:49:09.697                   : :Chapter 8
00:56:08.323                   : :Chapter 9
01:00:02.224                   : :Chapter 10
01:09:50.520                   : :Chapter 11
01:15:26.731                   : :Chapter 12
01:20:56.935                   : :Chapter 13
01:29:47.424                   : :Chapter 14
01:37:14.412                   : :Chapter 15
01:43:32.248                   : :Chapter 16
01:49:38.572                   : :Chapter 17
01:56:20.682                   : :Chapter 18
02:00:41.359                   : :Chapter 19
02:09:34.183                   : :Chapter 20





DWONLOAD LINKS