Atka Chatkan 2020 x264 720p Esub ZEE5 Hindi GOPI SAHI

Atkan Chatkan (2020)

Completed

Expected September 5, 2020
It is the story of a gifted kid Guddu, who along with his street kid friends, forms a band to win a prestigious musical competition without using conventional instruments and unites his separated musician parents.
EN

Director:

Shiv Hare

Writers:

Aadesh Raathi (script doctor), Shiv Hare




Atka Chatkan 2020 x264 720p Esub ZEE5 Hindi GOPI SAHI

Format                         : Matroska
Format version                 : Version 4
File size                      : 878 MiB
Duration                       : 2 h 3 min
Overall bit rate               : 998 kb/s
Movie name                     : Atka Chatkan 2020 GOPI SAHI
Encoded date                   : UTC 2020-09-05 08:02:46

Video
ID                             : 1
Format                         : AVC
Format/Info                    : Advanced Video Codec
Format profile                 : [email protected]
Format settings                : CABAC / 5 Ref Frames
Format settings, CABAC         : Yes
Format settings, Reference fra : 5 frames
Codec ID                       : V_MPEG4/ISO/AVC
Duration                       : 2 h 3 min
Bit rate                       : 899 kb/s
Width                          : 1 280 pixels
Height                         : 540 pixels
Display aspect ratio           : 2.40:1
Frame rate mode                : Constant
Frame rate                     : 25.000 FPS
Color space                    : YUV
Chroma subsampling             : 4:2:0
Bit depth                      : 8 bits
Scan type                      : Progressive
Bits/(Pixel*Frame)             : 0.052
Stream size                    : 791 MiB (90%)
Title                          : GOPI SAHI
Writing library                : x264 core 157 r2935 545de2f

Audio
ID                             : 2
Format                         : AAC LC
Format/Info                    : Advanced Audio Codec Low Complexity
Codec ID                       : A_AAC-2
Duration                       : 2 h 3 min
Bit rate                       : 96.0 kb/s
Channel(s)                     : 2 channels
Channel layout                 : L R
Sampling rate                  : 48.0 kHz
Frame rate                     : 46.875 FPS (1024 SPF)
Compression mode               : Lossy
Delay relative to video        : -54 ms
Stream size                    : 85.0 MiB (10%)
Title                          : GOPI SAHI
Language                       : Hindi
Default                        : Yes
Forced                         : No

Text
ID                             : 3
Format                         : UTF-8
Codec ID                       : S_TEXT/UTF8
Codec ID/Info                  : UTF-8 Plain Text
Duration                       : 2 h 0 min
Bit rate                       : 34 b/s
Count of elements              : 1119
Stream size                    : 30.5 KiB (0%)
Title                          : GOPI SAHI
Language                       : English
Default                        : Yes
Forced                         : No