Air Buddies 2006 x264 720p Esub BluRay Dual Audio English Hindi GOPI SAHI

Air Buddies (2006)




When dad BUDDY and mom MOLLY are dognapped, their five adorable pups, the AIR BUDDIES, must save the day...
EN

Director:

Robert Vince

4.8/10
3,248

Directed byRobert Vince
Produced byAnna McRoberts
Robert Vince
Written byAnna McRoberts
Robert Vince
Phil Hanley
Based onCharacters by
Paul Tamasy
Aaron Mendelsohn
Kevin DiCicco
StarringSlade Pearce
Trevor Wright
Christian Pikes
Paul Rae
Abigail Breslin
Michael Clarke Duncan
Don Knotts
Patrick Cranshaw
Music byBrahm Wenger
CinematographyMike Southon
Edited byKelly Herron
Jason Pielak
Production
company
Keystone Family Pictures
Key Pix Productions
Distributed byWalt Disney Home Entertainment
Release date
December 12, 2006
Running time
80 minutes
CountryUnited States
LanguageEnglish
Budget$9 million



Air Buddies 2006 x264 720p Esub BluRay Dual Audio English Hindi GOPI SAHI

Format                         : Matroska
Format version                 : Version 4
File size                      : 635 MiB
Duration                       : 1 h 19 min
Overall bit rate               : 1 113 kb/s
Movie name                     : Air Buddies 2006 GOPI SAHI
Encoded date                   : UTC 2020-09-20 07:44:34
Writing application            : mkvmerge v46.0.0 ('No Deeper Escape') 32-bit
Writing library                : libebml v1.3.10 + libmatroska v1.5.2

Video
ID                             : 1
Format                         : AVC
Format/Info                    : Advanced Video Codec
Format profile                 : [email protected]
Format settings                : CABAC / 5 Ref Frames
Format settings, CABAC         : Yes
Format settings, Reference fra : 5 frames
Codec ID                       : V_MPEG4/ISO/AVC
Duration                       : 1 h 19 min
Bit rate                       : 899 kb/s
Width                          : 1 280 pixels
Height                         : 720 pixels
Display aspect ratio           : 16:9
Frame rate mode                : Constant
Frame rate                     : 23.976 (24000/1001) FPS
Color space                    : YUV
Chroma subsampling             : 4:2:0
Bit depth                      : 8 bits
Scan type                      : Progressive
Bits/(Pixel*Frame)             : 0.041
Stream size                    : 511 MiB (81%)
Title                          : GOPI SAHI
Writing library                : x264 core 157 r2935 545de2f

Audio #1
ID                             : 2
Format                         : AAC LC
Format/Info                    : Advanced Audio Codec Low Complexity
Codec ID                       : A_AAC-2
Duration                       : 1 h 19 min
Bit rate                       : 96.0 kb/s
Channel(s)                     : 2 channels
Channel layout                 : L R
Sampling rate                  : 48.0 kHz
Frame rate                     : 46.875 FPS (1024 SPF)
Compression mode               : Lossy
Delay relative to video        : 494 ms
Stream size                    : 55.0 MiB (9%)
Title                          : GOPI SAHI
Language                       : Hindi
Default                        : Yes
Forced                         : No

Audio #2
ID                             : 3
Format                         : AAC LC
Format/Info                    : Advanced Audio Codec Low Complexity
Codec ID                       : A_AAC-2
Duration                       : 1 h 19 min
Bit rate                       : 96.0 kb/s
Channel(s)                     : 2 channels
Channel layout                 : L R
Sampling rate                  : 48.0 kHz
Frame rate                     : 46.875 FPS (1024 SPF)
Compression mode               : Lossy
Delay relative to video        : -21 ms
Stream size                    : 55.1 MiB (9%)
Title                          : GOPI SAHI
Language                       : English
Default                        : No
Forced                         : No

Text
ID                             : 4
Format                         : PGS
Muxing mode                    : zlib
Codec ID                       : S_HDMV/PGS
Codec ID/Info                  : Picture based subtitle format used on BDs/HD-DVDs
Duration                       : 1 h 18 min
Bit rate                       : 36.2 kb/s
Count of elements              : 3124
Stream size                    : 20.3 MiB (3%)
Title                          : GOPI SAHI
Language                       : English
Default                        : Yes
Forced                         : Yes

Menu
00:00:00.000                   : :Chapter 1
00:02:16.928                   : :Chapter 2
00:05:29.162                   : :Chapter 3
00:10:28.837                   : :Chapter 4
00:17:25.670                   : :Chapter 5
00:22:21.966                   : :Chapter 6
00:26:04.313                   : :Chapter 7
00:31:33.558                   : :Chapter 8
00:36:46.246                   : :Chapter 9
00:42:44.479                   : :Chapter 10
00:49:48.110                   : :Chapter 11
00:55:00.339                   : :Chapter 12
01:04:05.383                   : :Chapter 13
01:08:20.096                   : :Chapter 14
01:11:31.037                   : :Chapter 15
01:14:32.802                   : :Chapter 16