A Nightmare on Elm Street 5: The Dream Child 1989 x264 720p Esub BluRay Dual Audio English Hindi GOPI SAHI

A Nightmare on Elm Street 5: The Dream Child (1989)



A Nightmare on Elm Street: The Dream Child (original title)
The pregnant Alice finds Freddy Krueger striking through the sleeping mind of her unborn child, hoping to be reborn into the real world.
EN

Director:

Stephen Hopkins

Writers:

Wes Craven (characters), John Skipp (story) | 3 more credits »
5.2/10

Directed byStephen Hopkins
Produced by
Screenplay byLeslie Bohem
Story by
Based onCharacters
by Wes Craven
Bruce Wagner
William Kotzwinkle
Brian Helgeland
Starring
Music byJay Ferguson
CinematographyPeter Levy
Edited by
  • Brent A. Schoenfeld
  • Chuck Weiss
Production
company
Distributed byNew Line Cinema
Release date
  • August 11, 1989
Running time
90 minutes
CountryUnited States
LanguageEnglish
Budget$8 million[1]
Box office$22.1 million (US)




Format                         : Matroska
Format version                 : Version 4
File size                      : 708 MiB
Duration                       : 1 h 29 min
Overall bit rate               : 1 105 kb/s
Movie name                     : A Nightmare on Elm Street 5: The Dream Child 1989 GOPI SAHI
Encoded date                   : UTC 2020-09-15 07:47:43

Video
ID                             : 1
Format                         : AVC
Format/Info                    : Advanced Video Codec
Format profile                 : [email protected]
Format settings                : CABAC / 5 Ref Frames
Format settings, CABAC         : Yes
Format settings, Reference fra : 5 frames
Codec ID                       : V_MPEG4/ISO/AVC
Duration                       : 1 h 29 min
Bit rate                       : 899 kb/s
Width                          : 1 280 pixels
Height                         : 720 pixels
Display aspect ratio           : 16:9
Frame rate mode                : Constant
Frame rate                     : 23.976 (24000/1001) FPS
Color space                    : YUV
Chroma subsampling             : 4:2:0
Bit depth                      : 8 bits
Scan type                      : Progressive
Bits/(Pixel*Frame)             : 0.041
Stream size                    : 576 MiB (81%)
Title                          : GOPI SAHI
Writing library                : x264 core 157 r2935 545de2f

Audio #1
ID                             : 2
Format                         : AAC LC
Format/Info                    : Advanced Audio Codec Low Complexity
Codec ID                       : A_AAC-2
Duration                       : 1 h 29 min
Bit rate                       : 96.0 kb/s
Channel(s)                     : 2 channels
Channel layout                 : L R
Sampling rate                  : 48.0 kHz
Frame rate                     : 46.875 FPS (1024 SPF)
Compression mode               : Lossy
Delay relative to video        : -21 ms
Stream size                    : 61.8 MiB (9%)
Title                          : GOPI SAHI
Language                       : Hindi
Default                        : Yes
Forced                         : No

Audio #2
ID                             : 3
Format                         : AAC LC
Format/Info                    : Advanced Audio Codec Low Complexity
Codec ID                       : A_AAC-2
Duration                       : 1 h 29 min
Bit rate                       : 96.0 kb/s
Channel(s)                     : 2 channels
Channel layout                 : L R
Sampling rate                  : 48.0 kHz
Frame rate                     : 46.875 FPS (1024 SPF)
Compression mode               : Lossy
Delay relative to video        : -21 ms
Stream size                    : 61.8 MiB (9%)
Title                          : GOPI SAHI
Language                       : English
Default                        : No
Forced                         : No

Text
ID                             : 4
Format                         : PGS
Muxing mode                    : zlib
Codec ID                       : S_HDMV/PGS
Codec ID/Info                  : Picture based subtitle format used on BDs/HD-DVDs
Duration                       : 1 h 24 min
Bit rate                       : 25.8 kb/s
Count of elements              : 1766
Stream size                    : 15.7 MiB (2%)
Title                          : GOPI SAHI
Language                       : English
Default                        : Yes
Forced                         : Yes

Menu
00:00:00.000                   : :Opening Titles/Dream Lover
00:03:24.162                   : :The Nun's Nightmare
00:08:21.918                   : :Commencement
00:12:50.937                   : :Follow Your Dreams
00:16:34.118                   : :"Don't Panic Amanda"
00:22:57.710                   : :Talk Radio
00:27:37.447                   : :"Fuel Injection"
00:30:17.899                   : :Jacob Makes Three
00:35:19.618                   : :History Lesson
00:38:21.716                   : :"Second Helping"
00:41:58.599                   : :Mark's World
00:44:51.022                   : :Alice's Boy
00:49:40.853                   : :"Do Unborn Babies Dream?"
00:53:36.880                   : :"I Want to Keep Him"
00:58:31.174                   : :"Where's Amanda?"
01:00:41.721                   : :Yvonne Takes a Plunge
01:04:53.890                   : :"Faster Than a Bastard Maniac"
01:09:32.377                   : :"How Do We Stop Him?"
01:12:02.944                   : :Maniacs Attack
01:15:43.122                   : :The Evil Within Us All
01:19:08.744                   : :"School's Out Krueger"
01:23:22.414                   : :"Sweet Dreams Jacob Daniel"
01:24:20.514                   : :End Credits