A Nightmare on Elm Street 4: The Dream Master 1988 x264 720p Esub BluRay Dual Audio English Hindi GOPI SAHI

A Nightmare on Elm Street 4: The Dream Master (1988)



R | | Horror | 19 August 1988 (USA)
Freddy Krueger returns once again to terrorize the dreams of the remaining Dream Warriors, as well as those of a young woman who may be able to defeat him for good.
EN

Director:

Renny Harlin

Writers:

Wes Craven (character), William Kotzwinkle (story) | 4 more credits »
5.7/10
48,784
Directed byRenny Harlin
Produced by
Screenplay by
Story by
Based on
Characters
by
StarringRobert Englund
Music by
CinematographySteven Fierberg
Edited by
  • Michael N. Knue
  • Jack Tucker
  • Chuck Weiss
Production
company
Distributed byNew Line Cinema
Release date
  • August 19, 1988
Running time
93 minutes
CountryUnited States
LanguageEnglish
Budget$6.5 million[2][3]
Box office$49.4 million (US)[4]



Format                         : Matroska
Format version                 : Version 4
File size                      : 736 MiB
Duration                       : 1 h 33 min
Overall bit rate               : 1 103 kb/s
Movie name                     : A Nightmare on Elm Street 4: The Dream Master 1988 x264 720p Esub BluRay Dual Audio English Hindi GOPI SAHI
Encoded date                   : UTC 2020-09-15 06:40:58

Video
ID                             : 1
Format                         : AVC
Format/Info                    : Advanced Video Codec
Format profile                 : [email protected]
Format settings                : CABAC / 5 Ref Frames
Format settings, CABAC         : Yes
Format settings, Reference fra : 5 frames
Codec ID                       : V_MPEG4/ISO/AVC
Duration                       : 1 h 33 min
Bit rate                       : 899 kb/s
Width                          : 1 280 pixels
Height                         : 720 pixels
Display aspect ratio           : 16:9
Frame rate mode                : Constant
Frame rate                     : 23.976 (24000/1001) FPS
Color space                    : YUV
Chroma subsampling             : 4:2:0
Bit depth                      : 8 bits
Scan type                      : Progressive
Bits/(Pixel*Frame)             : 0.041
Stream size                    : 599 MiB (81%)
Title                          : GOPI SAHI
Writing library                : x264 core 157 r2935 545de2f

Audio #1
ID                             : 2
Format                         : AAC LC
Format/Info                    : Advanced Audio Codec Low Complexity
Codec ID                       : A_AAC-2
Duration                       : 1 h 33 min
Bit rate                       : 96.0 kb/s
Channel(s)                     : 2 channels
Channel layout                 : L R
Sampling rate                  : 48.0 kHz
Frame rate                     : 46.875 FPS (1024 SPF)
Compression mode               : Lossy
Delay relative to video        : -21 ms
Stream size                    : 64.2 MiB (9%)
Title                          : GOPI SAHI
Language                       : Hindi
Default                        : Yes
Forced                         : No

Audio #2
ID                             : 3
Format                         : AAC LC
Format/Info                    : Advanced Audio Codec Low Complexity
Codec ID                       : A_AAC-2
Duration                       : 1 h 33 min
Bit rate                       : 96.0 kb/s
Channel(s)                     : 2 channels
Channel layout                 : L R
Sampling rate                  : 48.0 kHz
Frame rate                     : 46.875 FPS (1024 SPF)
Compression mode               : Lossy
Delay relative to video        : -21 ms
Stream size                    : 64.3 MiB (9%)
Title                          : GOPI SAHI
Language                       : English
Default                        : No
Forced                         : No

Text
ID                             : 4
Format                         : PGS
Muxing mode                    : zlib
Codec ID                       : S_HDMV/PGS
Codec ID/Info                  : Picture based subtitle format used on BDs/HD-DVDs
Duration                       : 1 h 30 min
Bit rate                       : 22.2 kb/s
Count of elements              : 1611
Stream size                    : 14.4 MiB (2%)
Title                          : GOPI SAHI
Language                       : English
Default                        : Yes
Forced                         : Yes

Menu
00:00:00.000                   : :Opening Titles/Freddy's Not Home
00:04:57.297                   : :Not Again
00:07:20.732                   : :Avoid All Contact Day
00:12:11.356                   : :Daydreamer
00:15:29.470                   : :"This Ain't My Dreamland"
00:20:33.983                   : :Joey's Last Stand
00:23:06.176                   : :"Swish, Killed a Fish"
00:25:09.383                   : :The Nurse's Office
00:28:01.096                   : :Diner News
00:30:48.889                   : :"Why the Haunted House?"
00:32:55.807                   : :Dream Cuisine
00:35:07.606                   : :"Reach Out and Touch Someone"
00:39:40.003                   : :"I Don't Smoke"
00:43:26.270                   : :Learning Is Fun
00:46:58.774                   : :In the Flesh
00:53:03.597                   : :Mortal Combat
00:55:31.453                   : :"Mind Over Matter"
00:58:29.172                   : :Survivors Prepare
01:02:06.681                   : :Dream Date
01:05:03.066                   : :A Slice of Life
01:07:36.386                   : :Repeat Perforrmances
01:11:54.310                   : :Lights Out
01:14:30.591                   : :Combat Ready
01:19:13.499                   : :"I Am Eternal"
01:22:28.610                   : :"Rest in Hell"
01:25:53.357                   : :Make a Wish
01:27:00.924                   : :End Credits