A Nightmare on Elm Street 3: Dream Warriors 1987 x264 720p Esub BluRay Dual Audio English Hindi GOPI SAHI

A Nightmare on Elm Street 3: Dream Warriors (1987)

A psychiatrist familiar with knife-wielding dream demon Freddy Krueger helps teens at a mental hospital battle the killer who is invading their dreams.
EN

Director:

Chuck Russell

Writers:

Wes Craven (story), Bruce Wagner (story) | 5 more credits »
6.6/10
68,913
Directed byChuck Russell
Produced byRobert Shaye
Screenplay by
Story by
  • Wes Craven
  • Bruce Wagner
Based onCharacters
by Wes Craven
Starring
Music byAngelo Badalamenti
CinematographyRoy H. Wagner
Edited by
  • Terry Stokes
  • Chuck Weiss
Production
company
Distributed byNew Line Cinema
Release date
  • February 27, 1987 (United States)
Running time
96 minutes
CountryUnited States
LanguageEnglish
Budget$4.3–4.6 million[1][2]
Box office$44.8 million (US)[3]





Format                         : Matroska
Format version                 : Version 4
File size                      : 764 MiB
Duration                       : 1 h 36 min
Overall bit rate               : 1 106 kb/s
Movie name                     : A Nightmare on Elm Street 3: Dream Warriors 1987 GOPI SAHI
Encoded date                   : UTC 2020-09-15 06:39:17

Video
ID                             : 1
Format                         : AVC
Format/Info                    : Advanced Video Codec
Format profile                 : [email protected]
Format settings                : CABAC / 5 Ref Frames
Format settings, CABAC         : Yes
Format settings, Reference fra : 5 frames
Codec ID                       : V_MPEG4/ISO/AVC
Duration                       : 1 h 36 min
Bit rate                       : 899 kb/s
Width                          : 1 280 pixels
Height                         : 720 pixels
Display aspect ratio           : 16:9
Frame rate mode                : Constant
Frame rate                     : 23.976 (24000/1001) FPS
Color space                    : YUV
Chroma subsampling             : 4:2:0
Bit depth                      : 8 bits
Scan type                      : Progressive
Bits/(Pixel*Frame)             : 0.041
Stream size                    : 620 MiB (81%)
Title                          : GOPI SAHI
Writing library                : x264 core 157 r2935 545de2f

Audio #1
ID                             : 2
Format                         : AAC LC
Format/Info                    : Advanced Audio Codec Low Complexity
Codec ID                       : A_AAC-2
Duration                       : 1 h 36 min
Bit rate                       : 96.0 kb/s
Channel(s)                     : 2 channels
Channel layout                 : L R
Sampling rate                  : 48.0 kHz
Frame rate                     : 46.875 FPS (1024 SPF)
Compression mode               : Lossy
Delay relative to video        : -21 ms
Stream size                    : 66.6 MiB (9%)
Title                          : GOPI SAHI
Language                       : Hindi
Default                        : Yes
Forced                         : No

Audio #2
ID                             : 3
Format                         : AAC LC
Format/Info                    : Advanced Audio Codec Low Complexity
Codec ID                       : A_AAC-2
Duration                       : 1 h 36 min
Bit rate                       : 96.0 kb/s
Channel(s)                     : 2 channels
Channel layout                 : L R
Sampling rate                  : 48.0 kHz
Frame rate                     : 46.875 FPS (1024 SPF)
Compression mode               : Lossy
Delay relative to video        : -21 ms
Stream size                    : 66.5 MiB (9%)
Title                          : GOPI SAHI
Language                       : English
Default                        : No
Forced                         : No

Text
ID                             : 4
Format                         : PGS
Muxing mode                    : zlib
Codec ID                       : S_HDMV/PGS
Codec ID/Info                  : Picture based subtitle format used on BDs/HD-DVDs
Duration                       : 1 h 33 min
Bit rate                       : 29.2 kb/s
Count of elements              : 2186
Stream size                    : 19.6 MiB (3%)
Title                          : GOPI SAHI
Language                       : English
Default                        : Yes
Forced                         : Yes

Menu
00:00:00.000                   : :Opening Titles/Model Home
00:03:22.035                   : :"Get to Sleep"
00:04:12.294                   : :"This Is Where He Takes Us"
00:08:31.261                   : :Suicide
00:09:31.780                   : :Springwood's Troubled Teens
00:14:37.502                   : :Making the Rounds
00:18:49.920                   : :Sucked In
00:22:50.744                   : :Pull Someone Into Your Dream
00:25:54.178                   : :Conquering the Dream
00:29:25.514                   : :Phillip Takes a Walk
00:32:41.877                   : :"It Was Murder"
00:35:39.012                   : :Staying Awake
00:38:42.737                   : :"Your Big Break in Tv"
00:40:16.789                   : :An Unquiet Spirit
00:42:05.565                   : :Trusting Nancy
00:47:44.445                   : :Joey Wets His Whistle
00:50:46.168                   : :Freddy's Turn
00:54:43.322                   : :"the Bastard Song of 100 Maniacs"
00:59:11.214                   : :"Come and Get Him Bitch"
01:02:54.479                   : :The Race Is On
01:06:19.559                   : :Going On
01:10:41.654                   : :"You Should Listen to Your Mother"
01:12:51.492                   : :"Let's Get High"
01:14:56.909                   : :"Sorry Kid I Don't Believe in Fairy Tales"
01:16:51.065                   : :The Door
01:18:58.817                   : :The Remains of the Day
01:21:11.116                   : :"Your Wish Is My Command"
01:24:17.261                   : :Sticks and Stones
01:26:37.567                   : :"Die"
01:30:57.535                   : :"You Were His Mother"
01:32:32.505                   : :End Credits