A Nightmare on Elm Street 2010 x264 720p Esub BluRay Dual Audio English Hindi GOPI SAHI

A Nightmare on Elm Street (2010)


The spectre of a disfigured man haunts the children of the parents who murdered him, stalking and killing them in their dreams.
EN

Director:

Samuel Bayer

Writers:

Wesley Strick (screenplay), Eric Heisserer (screenplay) | 2 more credits »
5.2/10
90,981 
Directed bySamuel Bayer
Produced by
Screenplay by
Story byWesley Strick
Based onA Nightmare on Elm Street
by Wes Craven
Starring
Music bySteve Jablonsky
CinematographyJeff Cutter
Edited byGlen Scantlebury
Production
company
Distributed byNew Line Cinema
Release date
  • April 27, 2010 (Hollywood)[1]
  • April 30, 2010 (United States)
  • May 7, 2010 (United Kingdom)
Running time
90 minutes[2]
CountryUnited States
LanguageEnglish
Budget$35 million[2]
Box office$115.6 million[3]



A Nightmare on Elm Street 2010 GOPI SAHI

Format                         : Matroska
Format version                 : Version 4
File size                      : 754 MiB
Duration                       : 1 h 35 min
Overall bit rate               : 1 104 kb/s
Movie name                     : A Nightmare on Elm Street 2010 GOPI SAHI
Encoded date                   : UTC 2020-09-15 06:36:25

Video
ID                             : 1
Format                         : AVC
Format/Info                    : Advanced Video Codec
Format profile                 : [email protected]
Format settings                : CABAC / 5 Ref Frames
Format settings, CABAC         : Yes
Format settings, Reference fra : 5 frames
Codec ID                       : V_MPEG4/ISO/AVC
Duration                       : 1 h 35 min
Bit rate                       : 899 kb/s
Width                          : 1 280 pixels
Height                         : 534 pixels
Display aspect ratio           : 2.40:1
Frame rate mode                : Constant
Frame rate                     : 23.976 (24000/1001) FPS
Color space                    : YUV
Chroma subsampling             : 4:2:0
Bit depth                      : 8 bits
Scan type                      : Progressive
Bits/(Pixel*Frame)             : 0.055
Stream size                    : 614 MiB (81%)
Title                          : GOPI SAHI
Writing library                : x264 core 157 r2935 545de2f

Audio #1
ID                             : 2
Format                         : AAC LC
Format/Info                    : Advanced Audio Codec Low Complexity
Codec ID                       : A_AAC-2
Duration                       : 1 h 35 min
Bit rate                       : 96.0 kb/s
Channel(s)                     : 2 channels
Channel layout                 : L R
Sampling rate                  : 48.0 kHz
Frame rate                     : 46.875 FPS (1024 SPF)
Compression mode               : Lossy
Delay relative to video        : -21 ms
Stream size                    : 65.9 MiB (9%)
Title                          : GOPI SAHI
Language                       : Hindi
Default                        : Yes
Forced                         : No

Audio #2
ID                             : 3
Format                         : AAC LC
Format/Info                    : Advanced Audio Codec Low Complexity
Codec ID                       : A_AAC-2
Duration                       : 1 h 35 min
Bit rate                       : 96.0 kb/s
Channel(s)                     : 2 channels
Channel layout                 : L R
Sampling rate                  : 48.0 kHz
Frame rate                     : 46.875 FPS (1024 SPF)
Compression mode               : Lossy
Delay relative to video        : -21 ms
Stream size                    : 65.8 MiB (9%)
Title                          : GOPI SAHI
Language                       : English
Default                        : No
Forced                         : No

Text
ID                             : 4
Format                         : PGS
Muxing mode                    : zlib
Codec ID                       : S_HDMV/PGS
Codec ID/Info                  : Picture based subtitle format used on BDs/HD-DVDs
Duration                       : 1 h 34 min
Bit rate                       : 21.0 kb/s
Count of elements              : 1890
Stream size                    : 14.2 MiB (2%)
Title                          : GOPI SAHI
Language                       : English
Default                        : Yes
Forced                         : Yes

Menu
00:00:00.000                   : :Chapter 1
00:09:25.190                   : :Chapter 2
00:20:58.924                   : :Chapter 3
00:30:23.655                   : :Chapter 4
00:40:56.162                   : :Chapter 5
00:53:05.057                   : :Chapter 6
01:01:10.167                   : :Chapter 7
01:10:08.496                   : :Chapter 8
01:20:01.588                   : :Chapter 9
01:29:58.768                   : :Chapter 10