A Beautiful Mind 2001 x264 720p Esub BluRay Dual Audio English Hindi GOPI SAHI

A Beautiful Mind (2001)



PG-13 | | Biography, Drama | 4 January 2002 (USA) 
 
After John Nash, a brilliant but asocial mathematician, accepts secret work in cryptography, his life takes a turn for the nightmarish.
EN

Director:

Ron Howard

Writers:

Akiva Goldsman, Sylvia Nasar (book)

8.2/10


Theatrical release poster
Directed byRon Howard
Produced by
Written byAkiva Goldsman
Based onA Beautiful Mind
by Sylvia Nasar
Starring
Music byJames Horner
CinematographyRoger Deakins
Edited by
Production
company
Distributed by
Release date
  • December 13, 2001 (Beverly Hills premiere)
  • December 21, 2001 (United States)
Running time
135 minutes
CountryUnited States
LanguageEnglish
Budget$58 million[1]
Box office$313 million[1]


A Beautiful Mind 2001 x264 720p Esub BluRay Dual Audio English Hindi GOPI SAHI

Format                         : Matroska
Format version                 : Version 4
File size                      : 1.06 GiB
Duration                       : 2 h 16 min
Overall bit rate               : 1 106 kb/s
Movie name                     : A Beautiful Mind 2001 GOPI SAHI
Encoded date                   : UTC 2020-09-21 13:48:42
Writing application            : mkvmerge v46.0.0 ('No Deeper Escape') 32-bit
Writing library                : libebml v1.3.10 + libmatroska v1.5.2
Attachments                    : Hammer Logo.jpg

Video
ID                             : 1
Format                         : AVC
Format/Info                    : Advanced Video Codec
Format profile                 : [email protected]
Format settings                : CABAC / 5 Ref Frames
Format settings, CABAC         : Yes
Format settings, Reference fra : 5 frames
Codec ID                       : V_MPEG4/ISO/AVC
Duration                       : 2 h 15 min
Bit rate                       : 899 kb/s
Width                          : 1 280 pixels
Height                         : 694 pixels
Display aspect ratio           : 1.85:1
Frame rate mode                : Constant
Frame rate                     : 23.976 (24000/1001) FPS
Color space                    : YUV
Chroma subsampling             : 4:2:0
Bit depth                      : 8 bits
Scan type                      : Progressive
Bits/(Pixel*Frame)             : 0.042
Stream size                    : 870 MiB (80%)
Title                          : GOPI SAHI
Writing library                : x264 core 157 r2935 545de2f

Audio #1
ID                             : 2
Format                         : AAC LC
Format/Info                    : Advanced Audio Codec Low Complexity
Codec ID                       : A_AAC-2
Duration                       : 2 h 16 min
Bit rate                       : 96.0 kb/s
Channel(s)                     : 2 channels
Channel layout                 : L R
Sampling rate                  : 48.0 kHz
Frame rate                     : 46.875 FPS (1024 SPF)
Compression mode               : Lossy
Delay relative to video        : 107 ms
Stream size                    : 93.5 MiB (9%)
Title                          : GOPI SAHI
Language                       : Hindi
Default                        : Yes
Forced                         : No

Audio #2
ID                             : 3
Format                         : AAC LC
Format/Info                    : Advanced Audio Codec Low Complexity
Codec ID                       : A_AAC-2
Duration                       : 2 h 15 min
Bit rate                       : 96.0 kb/s
Channel(s)                     : 2 channels
Channel layout                 : L R
Sampling rate                  : 48.0 kHz
Frame rate                     : 46.875 FPS (1024 SPF)
Compression mode               : Lossy
Delay relative to video        : -21 ms
Stream size                    : 93.3 MiB (9%)
Title                          : GOPI SAHI
Language                       : English
Default                        : No
Forced                         : No

Text #1
ID                             : 4
Format                         : PGS
Muxing mode                    : zlib
Codec ID                       : S_HDMV/PGS
Codec ID/Info                  : Picture based subtitle format used on BDs/HD-DVDs
Duration                       : 2 h 7 min
Bit rate                       : 24.6 kb/s
Count of elements              : 2670
Stream size                    : 22.4 MiB (2%)
Title                          : GOPI SAHI
Language                       : Hindi
Default                        : No
Forced                         : No

Text #2
ID                             : 5
Format                         : PGS
Muxing mode                    : zlib
Codec ID                       : S_HDMV/PGS
Codec ID/Info                  : Picture based subtitle format used on BDs/HD-DVDs
Duration                       : 2 h 6 min
Bit rate                       : 35.2 kb/s
Count of elements              : 3156
Stream size                    : 32.0 MiB (3%)
Title                          : GOPI SAHI
Language                       : English
Default                        : No
Forced                         : No