Your Name 2016 x264 720p Hindi GOPI SAHI

Your Name. (2016)

Kimi no na wa. (original title)
Two strangers find themselves linked in a bizarre way. When a connection forms, will distance be the only thing to keep them apart?
EN

Director:

Makoto Shinkai

Writers:

Makoto Shinkai (based on his novel), Makoto Shinkai (screenplay) | 1 more credit »
8.4/10
177,464

Directed byMakoto Shinkai
Produced by
  • Kōichirō Itō
  • Katsuhiro Takei
Screenplay byMakoto Shinkai
Starring
Music byRadwimps
CinematographyMakoto Shinkai
Edited byMakoto Shinkai
Production
company
Distributed byToho
Release date
  • July 3, 2016 (Anime Expo)
  • August 26, 2016 (Japan)
  • April 7, 2017 (U.S.)
Running time
107 minutes[1]
CountryJapan
LanguageJapanese
Box office
  • ¥25.03 billion (Japan)[2]
  • $357.9 million (worldwide)[3]



Your Name 2016 x264 720p Hindi GOPI SAHI

Format                         : Matroska
Format version                 : Version 4
File size                      : 760 MiB
Duration                       : 1 h 46 min
Overall bit rate               : 997 kb/s
Movie name                     : Your Name 2016 GOPI SAHI
Encoded date                   : UTC 2020-08-24 14:18:46

Video
ID                             : 1
Format                         : AVC
Format/Info                    : Advanced Video Codec
Format profile                 : [email protected]
Format settings                : CABAC / 5 Ref Frames
Format settings, CABAC         : Yes
Format settings, Reference fra : 5 frames
Codec ID                       : V_MPEG4/ISO/AVC
Duration                       : 1 h 46 min
Bit rate                       : 899 kb/s
Width                          : 1 280 pixels
Height                         : 720 pixels
Display aspect ratio           : 16:9
Frame rate mode                : Constant
Frame rate                     : 23.976 (24000/1001) FPS
Color space                    : YUV
Chroma subsampling             : 4:2:0
Bit depth                      : 8 bits
Scan type                      : Progressive
Bits/(Pixel*Frame)             : 0.041
Stream size                    : 685 MiB (90%)
Title                          : GOPI SAHI
Writing library                : x264 core 157 r2935 545de2f

Audio
ID                             : 2
Format                         : AAC LC
Format/Info                    : Advanced Audio Codec Low Complexity
Codec ID                       : A_AAC-2
Duration                       : 1 h 46 min
Bit rate                       : 96.0 kb/s
Channel(s)                     : 2 channels
Channel layout                 : L R
Sampling rate                  : 48.0 kHz
Frame rate                     : 46.875 FPS (1024 SPF)
Compression mode               : Lossy
Delay relative to video        : -21 ms
Stream size                    : 73.0 MiB (10%)
Title                          : GOPI SAHI
Language                       : Hindi
Default                        : Yes
Forced                         : No