The White Haired Witch of Lunar Kingdom 2014 x264 720p Esub BluRay Dual Audio English Hindi GOPI SAHI

The White Haired Witch of Lunar Kingdom (2014)

Bai fa mo nu zhuan zhi ming yue tian guo (original title)
Not Rated | | Fantasy | 10 July 2020 (India) 
 
Story of two lovers, the White-Haired Witch and Taoist leader Zhuo Yihang and their love that could change the fate of the nation.
EN
 
5.4/10
1,507

Directed byJacob Cheung
Produced byHuang Jianxin
Screenplay byKang Qiao
Wang Bing
Story byLiang Yusheng
StarringFan Bingbing
Huang Xiaoming
Vincent Zhao
Wang Xuebing
Ni Dahong
Tong Yao
Li Ruxin
CinematographyLin Guohua
Production
company
Distributed byBona Film Group
Release date
  • 31 July 2014
Running time
103 mins
CountryChina
LanguageMandarin
Budget100 million yuan
(US$16 million)[1]
Box officeUS$64.2 million

The White Haired Witch of Lunar Kingdom 2014 x264 720p Esub BluRay Dual Audio English Hindi GOPI SAHI

Format                         : Matroska
Format version                 : Version 4
File size                      : 823 MiB
Duration                       : 1 h 43 min
Overall bit rate               : 1 108 kb/s
Movie name                     : The White Haired Witch of Lunar Kingdom 2014 GOPI SAHI
Encoded date                   : UTC 2020-08-16 03:39:16
Writing application            : mkvmerge v46.0.0 ('No Deeper Escape') 32-bit
Writing library                : libebml v1.3.10 + libmatroska v1.5.2
Attachments                    : Hammer Logo.jpg

Video
ID                             : 1
Format                         : AVC
Format/Info                    : Advanced Video Codec
Format profile                 : [email protected]
Format settings                : CABAC / 5 Ref Frames
Format settings, CABAC         : Yes
Format settings, Reference fra : 5 frames
Codec ID                       : V_MPEG4/ISO/AVC
Duration                       : 1 h 43 min
Bit rate                       : 899 kb/s
Width                          : 1 280 pixels
Height                         : 534 pixels
Display aspect ratio           : 2.40:1
Frame rate mode                : Constant
Frame rate                     : 23.976 (24000/1001) FPS
Color space                    : YUV
Chroma subsampling             : 4:2:0
Bit depth                      : 8 bits
Scan type                      : Progressive
Bits/(Pixel*Frame)             : 0.055
Stream size                    : 667 MiB (81%)
Title                          : GOPI SAHI
Writing library                : x264 core 157 r2935 545de2f

Audio #1
ID                             : 2
Format                         : AAC LC
Format/Info                    : Advanced Audio Codec Low Complexity
Codec ID                       : A_AAC-2
Duration                       : 1 h 43 min
Bit rate                       : 96.0 kb/s
Channel(s)                     : 2 channels
Channel layout                 : L R
Sampling rate                  : 48.0 kHz
Frame rate                     : 46.875 FPS (1024 SPF)
Compression mode               : Lossy
Delay relative to video        : 3 ms
Stream size                    : 71.7 MiB (9%)
Title                          : GOPI SAHI
Language                       : Hindi
Default                        : Yes
Forced                         : No

Audio #2
ID                             : 3
Format                         : AAC LC
Format/Info                    : Advanced Audio Codec Low Complexity
Codec ID                       : A_AAC-2
Duration                       : 1 h 43 min
Bit rate                       : 96.0 kb/s
Channel(s)                     : 2 channels
Channel layout                 : L R
Sampling rate                  : 48.0 kHz
Frame rate                     : 46.875 FPS (1024 SPF)
Compression mode               : Lossy
Delay relative to video        : 3 ms
Stream size                    : 71.7 MiB (9%)
Title                          : GOPI SAHI
Language                       : English
Default                        : No
Forced                         : No

Text
ID                             : 4
Format                         : PGS
Muxing mode                    : zlib
Codec ID                       : S_HDMV/PGS
Codec ID/Info                  : Picture based subtitle format used on BDs/HD-DVDs
Duration                       : 1 h 33 min
Bit rate                       : 32.1 kb/s
Count of elements              : 2280
Stream size                    : 21.6 MiB (3%)
Title                          : GOPI SAHI
Language                       : English
Default                        : Yes
Forced                         : No