The Stepford Wives 2004 x264 720p Esub NetFLix Dual Audio Hindi English GOPI SAHI

The Stepford Wives (2004)

PG-13 | | Comedy, Horror, Sci-Fi | 11 June 2004 (USA)

The secret to a Stepford wife lies behind the doors of the Men's Association.
EN

Director:

Frank Oz

Writers:

Ira Levin (book), Paul Rudnick (screenplay)

5.3/10

Directed byFrank Oz
Produced byScott Rudin
Donald De Line
Edgar J. Scherick
Gabriel Grunfeld
Screenplay byPaul Rudnick
Based onThe Stepford Wives
by Ira Levin
StarringNicole Kidman
Matthew Broderick
Bette Midler
Christopher Walken
Roger Bart
Faith Hill
Glenn Close
Music byDavid Arnold
CinematographyRob Hahn
Edited byJay Rabinowitz
Production
company
Distributed byParamount Pictures
(North America)
DreamWorks Pictures
(International)
Release date
  • June 11, 2004
Running time
93 minutes
CountryUnited States
LanguageEnglish
Budget$90 million
Box office$103.3 million



The Stepford Wives 2004 x264 720p Esub NetFLix Dual Audio Hindi English GOPI SAHI

Format                         : Matroska
Format version                 : Version 4
File size                      : 730 MiB
Duration                       : 1 h 33 min
Overall bit rate               : 1 093 kb/s
Movie name                     : The Stepford Wives 2004 1080p Untouched NF GOPI SAHI

Video
ID                             : 1
Format                         : AVC
Format/Info                    : Advanced Video Codec
Format profile                 : [email protected]
Format settings                : CABAC / 5 Ref Frames
Format settings, CABAC         : Yes
Format settings, Reference fra : 5 frames
Codec ID                       : V_MPEG4/ISO/AVC
Duration                       : 1 h 33 min
Bit rate                       : 899 kb/s
Width                          : 1 280 pixels
Height                         : 718 pixels
Display aspect ratio           : 16:9
Frame rate mode                : Constant
Frame rate                     : 23.976 (24000/1001) FPS
Color space                    : YUV
Chroma subsampling             : 4:2:0
Bit depth                      : 8 bits
Scan type                      : Progressive
Bits/(Pixel*Frame)             : 0.041
Stream size                    : 600 MiB (82%)
Title                          : GOPI SAHI
Writing library                : x264 core 157 r2935 545de2f

Audio #1
ID                             : 2
Format                         : AAC LC
Format/Info                    : Advanced Audio Codec Low Complexity
Codec ID                       : A_AAC-2
Duration                       : 1 h 33 min
Bit rate                       : 96.0 kb/s
Channel(s)                     : 2 channels
Channel layout                 : L R
Sampling rate                  : 48.0 kHz
Frame rate                     : 46.875 FPS (1024 SPF)
Compression mode               : Lossy
Delay relative to video        : -21 ms
Stream size                    : 63.8 MiB (9%)
Title                          : GOPI SAHI
Language                       : Hindi
Default                        : Yes
Forced                         : No

Audio #2
ID                             : 3
Format                         : AAC LC
Format/Info                    : Advanced Audio Codec Low Complexity
Codec ID                       : A_AAC-2
Duration                       : 1 h 33 min
Bit rate                       : 96.0 kb/s
Channel(s)                     : 2 channels
Channel layout                 : L R
Sampling rate                  : 48.0 kHz
Frame rate                     : 46.875 FPS (1024 SPF)
Compression mode               : Lossy
Delay relative to video        : -21 ms
Stream size                    : 63.8 MiB (9%)
Title                          : GOPI SAHI
Language                       : English
Default                        : No
Forced                         : No

Text #1
ID                             : 4
Format                         : UTF-8
Codec ID                       : S_TEXT/UTF8
Codec ID/Info                  : UTF-8 Plain Text
Duration                       : 1 h 29 min
Bit rate                       : 141 b/s
Count of elements              : 1149
Stream size                    : 92.5 KiB (0%)
Title                          : GOPI SAHI
Language                       : Hindi
Default                        : Yes
Forced                         : Yes

Text #2
ID                             : 5
Format                         : UTF-8
Codec ID                       : S_TEXT/UTF8
Codec ID/Info                  : UTF-8 Plain Text
Duration                       : 1 h 26 min
Bit rate                       : 63 b/s
Count of elements              : 1520
Stream size                    : 40.0 KiB (0%)
Title                          : GOPI SAHI
Language                       : English
Default                        : No
Forced                         : No