The Old Guard 2020 x264 720p Esub NetFLix Dual Audio Hindi English GOPI SAHI

The Old Guard (2020)

 
A covert team of immortal mercenaries are suddenly exposed and must now fight to keep their identity a secret just as an unexpected new member is discovered.
EN

Writers:

Greg Rucka (screenplay by), Greg Rucka (based on the graphic novel series by) | 1 more credit »
6.7/10
89,909

Directed byGina Prince-Bythewood
Produced by
Screenplay byGreg Rucka
Based onThe Old Guard
by Greg Rucka
Leandro Fernández
Starring
Music by
Cinematography
Edited byTerilyn A. Shropshire
Production
company
Distributed byNetflix
Release date
  • July 10, 2020 (United States)
Running time
125 minutes[1]
CountryUnited States
LanguageEnglish
Budget$70 million[2][3][4]



The Old Guard 2020 x264 720p Esub NetFLix Dual Audio Hindi English GOPI SAHI

Format                         : Matroska
Format version                 : Version 4
File size                      : 982 MiB
Duration                       : 2 h 5 min
Overall bit rate               : 1 093 kb/s
Movie name                     : The Old Guard 2020 GOPI SAHI
Encoded date                   : UTC 2020-08-15 04:29:13

Video
ID                             : 1
Format                         : AVC
Format/Info                    : Advanced Video Codec
Format profile                 : [email protected]
Format settings                : CABAC / 5 Ref Frames
Format settings, CABAC         : Yes
Format settings, Reference fra : 5 frames
Codec ID                       : V_MPEG4/ISO/AVC
Duration                       : 2 h 5 min
Bit rate                       : 899 kb/s
Width                          : 1 280 pixels
Height                         : 536 pixels
Display aspect ratio           : 2.40:1
Frame rate mode                : Constant
Frame rate                     : 24.000 FPS
Color space                    : YUV
Chroma subsampling             : 4:2:0
Bit depth                      : 8 bits
Scan type                      : Progressive
Bits/(Pixel*Frame)             : 0.055
Stream size                    : 807 MiB (82%)
Title                          : GOPI SAHI
Writing library                : x264 core 157 r2935 545de2f

Audio #1
ID                             : 2
Format                         : AAC LC
Format/Info                    : Advanced Audio Codec Low Complexity
Codec ID                       : A_AAC-2
Duration                       : 2 h 5 min
Bit rate                       : 96.0 kb/s
Channel(s)                     : 2 channels
Channel layout                 : L R
Sampling rate                  : 48.0 kHz
Frame rate                     : 46.875 FPS (1024 SPF)
Compression mode               : Lossy
Delay relative to video        : -21 ms
Stream size                    : 85.9 MiB (9%)
Title                          : GOPI SAHI
Language                       : Hindi
Default                        : Yes
Forced                         : No

Audio #2
ID                             : 3
Format                         : AAC LC
Format/Info                    : Advanced Audio Codec Low Complexity
Codec ID                       : A_AAC-2
Duration                       : 2 h 5 min
Bit rate                       : 96.0 kb/s
Channel(s)                     : 2 channels
Channel layout                 : L R
Sampling rate                  : 48.0 kHz
Frame rate                     : 46.875 FPS (1024 SPF)
Compression mode               : Lossy
Delay relative to video        : -21 ms
Stream size                    : 85.8 MiB (9%)
Title                          : GOPI SAHI
Language                       : English
Default                        : No
Forced                         : No

Text
ID                             : 4
Format                         : UTF-8
Codec ID                       : S_TEXT/UTF8
Codec ID/Info                  : UTF-8 Plain Text
Duration                       : 1 h 56 min
Bit rate                       : 46 b/s
Count of elements              : 1492
Stream size                    : 39.5 KiB (0%)
Title                          : GOPI SAHI
Language                       : English
Default                        : No
Forced                         : No