The Kissing Booth 2 2020 x264 720p Esub NetFLix Dual Audio Hindi English Telugu Tamil GOPI SAHI

The Kissing Booth 2 (2020)

TV-14 | | Comedy, Romance | 24 July 2020 (USA) 
 
In the sequel to 2018's THE KISSING BOOTH, high school senior Elle juggles a long-distance relationship with her dreamy boyfriend Noah, college applications, and a new friendship with a handsome classmate that could change everything.
EN

Director:

Vince Marcello
5.9/10

The Kissing Booth 2 2020 x264 720p Esub NetFLix Dual Audio Hindi English Telugu Tamil GOPI SAHI

Format                         : Matroska
Format version                 : Version 4
File size                      : 1.19 GiB
Duration                       : 2 h 12 min
Overall bit rate               : 1 284 kb/s
Movie name                     : The Kissing Booth 2 2020 GOPI SAHI
Encoded date                   : UTC 2020-08-22 03:11:26

Video
ID                             : 1
Format                         : AVC
Format/Info                    : Advanced Video Codec
Format profile                 : [email protected]
Format settings                : CABAC / 5 Ref Frames
Format settings, CABAC         : Yes
Format settings, Reference fra : 5 frames
Codec ID                       : V_MPEG4/ISO/AVC
Duration                       : 2 h 12 min
Bit rate                       : 899 kb/s
Width                          : 1 280 pixels
Height                         : 564 pixels
Display aspect ratio           : 2.25:1
Frame rate mode                : Constant
Frame rate                     : 24.000 FPS
Color space                    : YUV
Chroma subsampling             : 4:2:0
Bit depth                      : 8 bits
Scan type                      : Progressive
Bits/(Pixel*Frame)             : 0.052
Stream size                    : 853 MiB (70%)
Title                          : GOPI SAHI
Writing library                : x264 core 157 r2935 545de2f

Audio #1
ID                             : 2
Format                         : AAC LC
Format/Info                    : Advanced Audio Codec Low Complexity
Codec ID                       : A_AAC-2
Duration                       : 2 h 12 min
Bit rate                       : 96.0 kb/s
Channel(s)                     : 2 channels
Channel layout                 : L R
Sampling rate                  : 48.0 kHz
Frame rate                     : 46.875 FPS (1024 SPF)
Compression mode               : Lossy
Delay relative to video        : -21 ms
Stream size                    : 90.4 MiB (7%)
Title                          : GOPI SAHI
Language                       : Hindi
Default                        : Yes
Forced                         : No

Audio #2
ID                             : 3
Format                         : AAC LC
Format/Info                    : Advanced Audio Codec Low Complexity
Codec ID                       : A_AAC-2
Duration                       : 2 h 12 min
Bit rate                       : 96.0 kb/s
Channel(s)                     : 2 channels
Channel layout                 : L R
Sampling rate                  : 48.0 kHz
Frame rate                     : 46.875 FPS (1024 SPF)
Compression mode               : Lossy
Delay relative to video        : -21 ms
Stream size                    : 90.4 MiB (7%)
Title                          : GOPI SAHI
Language                       : English
Default                        : No
Forced                         : No

Audio #3
ID                             : 4
Format                         : AAC LC
Format/Info                    : Advanced Audio Codec Low Complexity
Codec ID                       : A_AAC-2
Duration                       : 2 h 12 min
Bit rate                       : 96.0 kb/s
Channel(s)                     : 2 channels
Channel layout                 : L R
Sampling rate                  : 48.0 kHz
Frame rate                     : 46.875 FPS (1024 SPF)
Compression mode               : Lossy
Delay relative to video        : -21 ms
Stream size                    : 90.4 MiB (7%)
Title                          : GOPI SAHI
Language                       : Tamil
Default                        : No
Forced                         : No

Audio #4
ID                             : 5
Format                         : AAC LC
Format/Info                    : Advanced Audio Codec Low Complexity
Codec ID                       : A_AAC-2
Duration                       : 2 h 12 min
Bit rate                       : 96.0 kb/s
Channel(s)                     : 2 channels
Channel layout                 : L R
Sampling rate                  : 48.0 kHz
Frame rate                     : 46.875 FPS (1024 SPF)
Compression mode               : Lossy
Delay relative to video        : -21 ms
Stream size                    : 90.4 MiB (7%)
Title                          : GOPI SAHI
Language                       : Telugu
Default                        : No
Forced                         : No

Text
ID                             : 6
Format                         : UTF-8
Codec ID                       : S_TEXT/UTF8
Codec ID/Info                  : UTF-8 Plain Text
Duration                       : 2 h 9 min
Bit rate                       : 110 b/s
Count of elements              : 2315
Stream size                    : 104 KiB (0%)
Title                          : GOPI SAHI
Language                       : English
Default                        : Yes
Forced                         : No

Menu
00:00:00.000                   : :Chapter 1
00:04:59.667                   : :Chapter 2
00:09:59.458                   : :Chapter 3
00:14:59.167                   : :Chapter 4
00:19:58.792                   : :Chapter 5
00:24:58.500                   : :Chapter 6
00:29:58.042                   : :Chapter 7
00:34:57.833                   : :Chapter 8
00:39:57.500                   : :Chapter 9
00:44:57.125                   : :Chapter 10
00:49:56.833                   : :Chapter 11
00:54:56.417                   : :Chapter 12
00:59:56.167                   : :Chapter 13
01:04:55.708                   : :Chapter 14
01:09:55.375                   : :Chapter 15
01:14:55.042                   : :Chapter 16
01:19:54.708                   : :Chapter 17
01:24:54.458                   : :Chapter 18
01:29:54.042                   : :Chapter 19
01:34:53.792                   : :Chapter 20
01:39:53.375                   : :Chapter 21
01:44:53.042                   : :Chapter 22
01:49:52.792                   : :Chapter 23
02:00:46.708                   : :Chapter 24
02:11:55.542                   : :Chapter 25