Sadak 2 2020 x264 720p Esub Esub Disney+Hotstar Hindi GOPI SAHI

Sadak 2 (2020)

The film picks up where Sadak left off, revolving around the journey with a young girl who becomes an important character in the life of the protagonist, and the reason for him to stay alive.
EN

Director:

Mahesh Bhatt

Writers:

Pushpdeep Bhardwaj (additional dialogue), Mahesh Bhatt | 1 more credit »
1.0/10




Directed byMahesh Bhatt
Produced byMukesh Bhatt
Written byMahesh Bhatt
Sumitra Sengupta
StarringSanjay Dutt
Pooja Bhatt
Alia Bhatt
Aditya Roy Kapur
Music byScore:
Sandeep Chowta
Songs:
Jeet Gannguli
Ankit Tiwari
Samidh Mukherjee
Urvi
Suniljeet
CinematographyJay I. Patel
Edited bySandeep Kurup
Production
company
Distributed byDisney+ Hotstar
Release date
  • 28 August 2020[1]
Running time
113 minutes
CountryIndia
LanguageHindi


Sadak 2 2020 x264 720p Esub Esub Disney+Hotstar Hindi GOPI SAHI

Format                         : Matroska
Format version                 : Version 4
File size                      : 953 MiB
Duration                       : 2 h 13 min
Overall bit rate               : 997 kb/s
Movie name                     : Sadak 2 2010 GOPI SAHI
Encoded date                   : UTC 2020-08-29 12:03:58

Video
ID                             : 1
Format                         : AVC
Format/Info                    : Advanced Video Codec
Format profile                 : [email protected]
Format settings                : CABAC / 5 Ref Frames
Format settings, CABAC         : Yes
Format settings, Reference fra : 5 frames
Codec ID                       : V_MPEG4/ISO/AVC
Duration                       : 2 h 13 min
Bit rate                       : 899 kb/s
Width                          : 1 280 pixels
Height                         : 534 pixels
Display aspect ratio           : 2.40:1
Frame rate mode                : Constant
Frame rate                     : 24.000 FPS
Color space                    : YUV
Chroma subsampling             : 4:2:0
Bit depth                      : 8 bits
Scan type                      : Progressive
Bits/(Pixel*Frame)             : 0.055
Stream size                    : 859 MiB (90%)
Title                          : GOPI SAHI
Writing library                : x264 core 157 r2935 545de2f

Audio
ID                             : 2
Format                         : AAC LC
Format/Info                    : Advanced Audio Codec Low Complexity
Codec ID                       : A_AAC-2
Duration                       : 2 h 13 min
Bit rate                       : 96.0 kb/s
Channel(s)                     : 2 channels
Channel layout                 : L R
Sampling rate                  : 48.0 kHz
Frame rate                     : 46.875 FPS (1024 SPF)
Compression mode               : Lossy
Delay relative to video        : -42 ms
Stream size                    : 92.2 MiB (10%)
Title                          : GOPI SAHI
Language                       : Hindi
Default                        : Yes
Forced                         : No

Text
ID                             : 3
Format                         : UTF-8
Codec ID                       : S_TEXT/UTF8
Codec ID/Info                  : UTF-8 Plain Text
Duration                       : 2 h 8 min
Bit rate                       : 34 b/s
Count of elements              : 1048
Stream size                    : 32.1 KiB (0%)
Title                          : GOPI SAHI
Language                       : English
Default                        : Yes
Forced                         : No