Johnny English Strikes Again 2018 x264 720p Esub BluRay Dual Audio English Hindi GOPI SAHI

Johnny English Strikes Again (2018)



After a cyber-attack reveals the identity of all of the active undercover agents in Britain, Johnny English (Rowan Atkinson) is forced to come out of retirement to find the mastermind hacker.
EN

Director:

David Kerr

Writer:

William Davies (screenplay by)
6.2/10

Directed byDavid Kerr
Produced by
Screenplay byWilliam Davies
Based onCharacters
by Neal Purvis
Robert Wade
William Davies
Starring
Music byHoward Goodall
CinematographyFlorian Hoffmeister
Edited byTony Cranstoun
Production
company
Distributed byUniversal Pictures
Release date
Running time
89 minutes[1]
Country
  • France
  • United Kingdom
LanguageEnglish
Budget$25 million[2]
Box office$159 million[2]

Format                         : Matroska
Format version                 : Version 4
File size                      : 707 MiB
Duration                       : 1 h 28 min
Overall bit rate               : 1 115 kb/s
Movie name                     : Johnny English Strikes Again 2018 GOPI SAHI
Encoded date                   : UTC 2020-08-17 13:15:13
Writing application            : mkvmerge v46.0.0 ('No Deeper Escape') 32-bit
Writing library                : libebml v1.3.10 + libmatroska v1.5.2
Attachments                    : Hammer Logo.jpg

Video
ID                             : 1
Format                         : AVC
Format/Info                    : Advanced Video Codec
Format profile                 : [email protected]
Format settings                : CABAC / 5 Ref Frames
Format settings, CABAC         : Yes
Format settings, Reference fra : 5 frames
Codec ID                       : V_MPEG4/ISO/AVC
Duration                       : 1 h 28 min
Bit rate                       : 899 kb/s
Width                          : 1 280 pixels
Height                         : 534 pixels
Display aspect ratio           : 2.40:1
Frame rate mode                : Constant
Frame rate                     : 23.976 (24000/1001) FPS
Color space                    : YUV
Chroma subsampling             : 4:2:0
Bit depth                      : 8 bits
Scan type                      : Progressive
Bits/(Pixel*Frame)             : 0.055
Stream size                    : 569 MiB (80%)
Title                          : GOPI SAHI
Writing library                : x264 core 157 r2935 545de2f

Audio #1
ID                             : 2
Format                         : AAC LC
Format/Info                    : Advanced Audio Codec Low Complexity
Codec ID                       : A_AAC-2
Duration                       : 1 h 28 min
Bit rate                       : 96.0 kb/s
Channel(s)                     : 2 channels
Channel layout                 : L R
Sampling rate                  : 48.0 kHz
Frame rate                     : 46.875 FPS (1024 SPF)
Compression mode               : Lossy
Delay relative to video        : 86 ms
Stream size                    : 61.1 MiB (9%)
Title                          : GOPI SAHI
Language                       : Hindi
Default                        : Yes
Forced                         : No

Audio #2
ID                             : 3
Format                         : AAC LC
Format/Info                    : Advanced Audio Codec Low Complexity
Codec ID                       : A_AAC-2
Duration                       : 1 h 28 min
Bit rate                       : 96.0 kb/s
Channel(s)                     : 2 channels
Channel layout                 : L R
Sampling rate                  : 48.0 kHz
Frame rate                     : 46.875 FPS (1024 SPF)
Compression mode               : Lossy
Delay relative to video        : -21 ms
Stream size                    : 61.0 MiB (9%)
Title                          : GOPI SAHI
Language                       : English
Default                        : No
Forced                         : No

Text
ID                             : 4
Format                         : PGS
Muxing mode                    : zlib
Codec ID                       : S_HDMV/PGS
Codec ID/Info                  : Picture based subtitle format used on BDs/HD-DVDs
Duration                       : 1 h 22 min
Bit rate                       : 53.2 kb/s
Count of elements              : 2044
Stream size                    : 31.3 MiB (4%)
Title                          : GOPI SAHI
Language                       : English
Default                        : Yes
Forced                         : No