Dil Bechara 2020 x264 720p Esub HD Hindi GOPI SAHI

Dil Bechara (2020)

12+ | | Comedy, Drama, Romance | 24 July 2020 (USA)
The emotional journey of two hopelessly in love youngsters, a young girl, Kizie, suffering from cancer, and a boy, Manny, whom she meets at a support group.
EN

Director:

Mukesh Chhabra

Writers:

Shashank Khaitan (adaptation), Suprotim Sengupta (adaptation) | 3 more credits »

8.9/10




Directed byMukesh Chhabra
Written byShashank Khaitan
Suprotim Sengupta
Based onThe Fault in Our Stars
by John Green
StarringSushant Singh Rajput
Sanjana Sanghi
Music byA. R. Rahman
CinematographySatyajit Pande
Edited byAarif Sheikh
Production
company
Distributed byDisney+ Hotstar
Release date
  • 24 July 2020[1]
Running time
101 minutes
CountryIndia
LanguageHindi


Format                         : Matroska
Format version                 : Version 4
File size                      : 724 MiB
Duration                       : 1 h 41 min
Overall bit rate               : 998 kb/s
Movie name                     : Dil Bechara 2020 GOPI SAHI
Encoded date                   : UTC 2020-08-01 10:41:59

Video
ID                             : 1
Format                         : AVC
Format/Info                    : Advanced Video Codec
Format profile                 : [email protected]
Format settings                : CABAC / 5 Ref Frames
Format settings, CABAC         : Yes
Format settings, Reference fra : 5 frames
Codec ID                       : V_MPEG4/ISO/AVC
Duration                       : 1 h 41 min
Bit rate                       : 899 kb/s
Width                          : 1 280 pixels
Height                         : 536 pixels
Display aspect ratio           : 2.40:1
Frame rate mode                : Constant
Frame rate                     : 24.000 FPS
Color space                    : YUV
Chroma subsampling             : 4:2:0
Bit depth                      : 8 bits
Scan type                      : Progressive
Bits/(Pixel*Frame)             : 0.055
Stream size                    : 652 MiB (90%)
Title                          : GOPI SAHI
Writing library                : x264 core 157 r2935 545de2f

Audio
ID                             : 2
Format                         : AAC LC
Format/Info                    : Advanced Audio Codec Low Complexity
Codec ID                       : A_AAC-2
Duration                       : 1 h 41 min
Bit rate                       : 96.0 kb/s
Channel(s)                     : 2 channels
Channel layout                 : L R
Sampling rate                  : 48.0 kHz
Frame rate                     : 46.875 FPS (1024 SPF)
Compression mode               : Lossy
Delay relative to video        : -21 ms
Stream size                    : 69.9 MiB (10%)
Title                          : GOPI SAHI
Language                       : Hindi
Default                        : Yes
Forced                         : No

Text
ID                             : 3
Format                         : UTF-8
Codec ID                       : S_TEXT/UTF8
Codec ID/Info                  : UTF-8 Plain Text
Duration                       : 1 h 35 min
Bit rate                       : 44 b/s
Count of elements              : 1154
Stream size                    : 31.2 KiB (0%)
Title                          : GOPI SAHI
Language                       : English
Default                        : Yes
Forced                         : No