Detective 2020 x264 720p Hindi GOPI SAHI

Detective (2020)

Heard about Mahimchandra, the new detective in town? Brace yourself for a thrilling venture spiked with sarcasm and comedy in SVF's first direct to OTT release, Detective, based on Rabindranath Tagore's story.
EN

6.3/10
44


Format                         : Matroska
Format version                 : Version 4
File size                      : 823 MiB
Duration                       : 1 h 55 min
Overall bit rate               : 997 kb/s
Movie name                     : Detective 2020 GOPI SAHI
Encoded date                   : UTC 2020-08-21 04:16:39


Video
ID                             : 1
Format                         : AVC
Format/Info                    : Advanced Video Codec
Format profile                 : [email protected]
Format settings                : CABAC / 5 Ref Frames
Format settings, CABAC         : Yes
Format settings, Reference fra : 5 frames
Codec ID                       : V_MPEG4/ISO/AVC
Duration                       : 1 h 55 min
Bit rate                       : 899 kb/s
Width                          : 1 280 pixels
Height                         : 618 pixels
Display aspect ratio           : 2.071
Frame rate mode                : Constant
Frame rate                     : 25.000 FPS
Color space                    : YUV
Chroma subsampling             : 4:2:0
Bit depth                      : 8 bits
Scan type                      : Progressive
Bits/(Pixel*Frame)             : 0.045
Stream size                    : 743 MiB (90%)
Title                          : GOPI SAHI
Writing library                : x264 core 157 r2935 545de2f

Audio
ID                             : 2
Format                         : AAC LC
Format/Info                    : Advanced Audio Codec Low Complexity
Codec ID                       : A_AAC-2
Duration                       : 1 h 55 min
Bit rate                       : 96.0 kb/s
Channel(s)                     : 2 channels
Channel layout                 : L R
Sampling rate                  : 48.0 kHz
Frame rate                     : 46.875 FPS (1024 SPF)
Compression mode               : Lossy
Delay relative to video        : -54 ms
Stream size                    : 79.1 MiB (10%)
Title                          : GOPI SAHI
Language                       : Hindi
Default                        : Yes
Forced                         : No