Death Race 2008 x264 720p Esub BluRay Dual Audio English Hindi GOPI SAHI

Death Race (2008)

Ex-con Jensen Ames is forced by the warden of a notorious prison to compete in our post-industrial world's most popular sport: a car race in which inmates must brutalize and kill one another on the road to victory.
EN

6.4/10


Directed byPaul W. S. Anderson
Produced by
Screenplay byPaul W. S. Anderson
Story byPaul W. S. Anderson
Based onDeath Race 2000
by Robert Thom
Charles B. Griffith
The Racer
by Ib Melchior
Starring
Music byPaul Haslinger
CinematographyScott Kevan[1]
Edited by
  • Niven Howie
  • David Kern (add)
  • Dallas Puett (add)[1]
Production
company
Distributed byUniversal Pictures
Release date
  • August 22, 2008
Running time
111 minutes
CountryUnited States
Germany
United Kingdom[1]
LanguageEnglish
Budget$45-65 million[2][3]
Box office$76 million[2]



Format                         : Matroska
Format version                 : Version 4
File size                      : 871 MiB
Duration                       : 1 h 50 min
Overall bit rate               : 1 101 kb/s
Movie name                     : Death Race 2008 UNRATED GOPI SAHI
Encoded date                   : UTC 2020-05-29 05:24:57

Video
ID                             : 1
Format                         : AVC
Format/Info                    : Advanced Video Codec
Format profile                 : [email protected]
Format settings                : CABAC / 5 Ref Frames
Format settings, CABAC         : Yes
Format settings, Reference fra : 5 frames
Codec ID                       : V_MPEG4/ISO/AVC
Duration                       : 1 h 50 min
Bit rate                       : 899 kb/s
Width                          : 1 280 pixels
Height                         : 544 pixels
Display aspect ratio           : 2.35:1
Frame rate mode                : Constant
Frame rate                     : 23.976 (24000/1001) FPS
Color space                    : YUV
Chroma subsampling             : 4:2:0
Bit depth                      : 8 bits
Scan type                      : Progressive
Bits/(Pixel*Frame)             : 0.054
Stream size                    : 711 MiB (82%)
Title                          : GOPI SAHI
Writing library                : x264 core 157 r2935 545de2f

Audio #1
ID                             : 2
Format                         : AAC LC
Format/Info                    : Advanced Audio Codec Low Complexity
Codec ID                       : A_AAC-2
Duration                       : 1 h 50 min
Bit rate                       : 96.0 kb/s
Channel(s)                     : 2 channels
Channel layout                 : L R
Sampling rate                  : 48.0 kHz
Frame rate                     : 46.875 FPS (1024 SPF)
Compression mode               : Lossy
Delay relative to video        : -21 ms
Stream size                    : 76.2 MiB (9%)
Title                          : GOPI SAHI
Language                       : Hindi
Default                        : Yes
Forced                         : No

Audio #2
ID                             : 3
Format                         : AAC LC
Format/Info                    : Advanced Audio Codec Low Complexity
Codec ID                       : A_AAC-2
Duration                       : 1 h 50 min
Bit rate                       : 96.0 kb/s
Channel(s)                     : 2 channels
Channel layout                 : L R
Sampling rate                  : 48.0 kHz
Frame rate                     : 46.875 FPS (1024 SPF)
Compression mode               : Lossy
Delay relative to video        : -21 ms
Stream size                    : 76.3 MiB (9%)
Title                          : GOPI SAHI
Language                       : English
Default                        : No
Forced                         : No

Text
ID                             : 4
Format                         : PGS
Muxing mode                    : zlib
Codec ID                       : S_HDMV/PGS
Codec ID/Info                  : Picture based subtitle format used on BDs/HD-DVDs
Duration                       : 1 h 50 min
Bit rate                       : 23.8 kb/s
Count of elements              : 1904
Stream size                    : 18.8 MiB (2%)
Title                          : GOPI SAHI
Language                       : English
Default                        : Yes
Forced                         : Yes