Dead Silence 2007 Unrated x264 720p Esub BluRay Dual Audio English Hindi GOPI SAHI

Dead Silence (2007)


A young widower returns to his hometown to search for answers to his wife's murder, which may be linked to the ghost of a murdered ventriloquist.
EN

Director:

James Wan

Writers:

Leigh Whannell (screenplay), James Wan (story) | 1 more credit »

6.2/10
83,328
Directed byJames Wan
Produced byGregg Hoffman
Oren Koules
Mark Burg
Screenplay byLeigh Whannell
Story byJames Wan
Leigh Whannell
StarringRyan Kwanten
Amber Valletta
Donnie Wahlberg
Bob Gunton
Music byCharlie Clouser
CinematographyJohn R. Leonetti
Edited byMichael Knue
Production
company
Distributed byUniversal Pictures
Lionsgate
Release date
  • March 16, 2007
Running time
89 minutes
92 minutes (Unrated cut)
CountryUnited States
LanguageEnglish
Budget$20 million[1]
Box office$22.2 million[1]




Dead Silence 2007 Unrated x264 720p Esub BluRay Dual Audio English Hindi GOPI SAHI

Format                         : Matroska
Format version                 : Version 4
File size                      : 720 MiB
Duration                       : 1 h 31 min
Overall bit rate               : 1 101 kb/s
Movie name                     : Dead Silence 2007 Unrated GOPI SAHI
Encoded date                   : UTC 2020-08-20 13:52:28
Writing application            : mkvmerge v46.0.0 ('No Deeper Escape') 32-bit
Writing library                : libebml v1.3.10 + libmatroska v1.5.2
Attachments                    : Hammer Logo.jpg

Video
ID                             : 1
Format                         : AVC
Format/Info                    : Advanced Video Codec
Format profile                 : [email protected]
Format settings                : CABAC / 5 Ref Frames
Format settings, CABAC         : Yes
Format settings, Reference fra : 5 frames
Codec ID                       : V_MPEG4/ISO/AVC
Duration                       : 1 h 31 min
Bit rate                       : 899 kb/s
Width                          : 1 280 pixels
Height                         : 576 pixels
Display aspect ratio           : 2.222
Frame rate mode                : Constant
Frame rate                     : 23.976 (24000/1001) FPS
Color space                    : YUV
Chroma subsampling             : 4:2:0
Bit depth                      : 8 bits
Scan type                      : Progressive
Bits/(Pixel*Frame)             : 0.051
Stream size                    : 588 MiB (82%)
Title                          : GOPI SAHI
Writing library                : x264 core 157 r2935 545de2f

Audio #1
ID                             : 2
Format                         : AAC LC
Format/Info                    : Advanced Audio Codec Low Complexity
Codec ID                       : A_AAC-2
Duration                       : 1 h 31 min
Bit rate                       : 96.0 kb/s
Channel(s)                     : 2 channels
Channel layout                 : L R
Sampling rate                  : 48.0 kHz
Frame rate                     : 46.875 FPS (1024 SPF)
Compression mode               : Lossy
Delay relative to video        : -21 ms
Stream size                    : 63.1 MiB (9%)
Title                          : GOPI SAHI
Language                       : Hindi
Default                        : Yes
Forced                         : No

Audio #2
ID                             : 3
Format                         : AAC LC
Format/Info                    : Advanced Audio Codec Low Complexity
Codec ID                       : A_AAC-2
Duration                       : 1 h 31 min
Bit rate                       : 96.0 kb/s
Channel(s)                     : 2 channels
Channel layout                 : L R
Sampling rate                  : 48.0 kHz
Frame rate                     : 46.875 FPS (1024 SPF)
Compression mode               : Lossy
Delay relative to video        : -21 ms
Stream size                    : 63.1 MiB (9%)
Title                          : GOPI SAHI
Language                       : English
Default                        : No
Forced                         : No

Text
ID                             : 4
Format                         : PGS
Muxing mode                    : zlib
Codec ID                       : S_HDMV/PGS
Codec ID/Info                  : Picture based subtitle format used on BDs/HD-DVDs
Duration                       : 1 h 23 min
Bit rate                       : 22.6 kb/s
Count of elements              : 1374
Stream size                    : 13.5 MiB (2%)
Title                          : GOPI SAHI
Language                       : English
Default                        : Yes
Forced                         : No