Crocodile Dundee II 1988 x264 720p Esub BluRay Dual Audio English Hindi GOPI SAHI

Crocodile Dundee II (1988)

'Crocodile' Dundee II (original title)

Australian outback expert protects his New York love from gangsters who've followed her down under.
EN

Director:

John Cornell

Writers:

Paul Hogan (characters), Paul Hogan | 1 more credit »

5.6/10
52,506
Directed byJohn Cornell
Produced byJohn Cornell
Jane Scott
Written byPaul Hogan
Brett Hogan
Starring
Music byPeter Best
CinematographyRussell Boyd
Edited byDavid Stiven
Production
company
Rimfire Films
Distributed by
Release date
  • 20 May 1988 (Australia)
  • 25 May 1988 (North America)
  • 23 June 1988 (United Kingdom)
Running time
112 minutes
CountryAustralia
United States
LanguageEnglish
Budget$14 million[1]
Box office$239.6 million[2]



Crocodile Dundee II 1988 x264 720p Esub BluRay Dual Audio English Hindi GOPI SAHI

Format                         : Matroska
Format version                 : Version 4
File size                      : 879 MiB
Duration                       : 1 h 51 min
Overall bit rate               : 1 100 kb/s
Movie name                     : Crocodile Dundee II 1988 GOPI SAHI
Encoded date                   : UTC 2020-08-25 09:37:40
Writing application            : mkvmerge v46.0.0 ('No Deeper Escape') 32-bit
Writing library                : libebml v1.3.10 + libmatroska v1.5.2

Video
ID                             : 1
Format                         : AVC
Format/Info                    : Advanced Video Codec
Format profile                 : [email protected]
Format settings                : CABAC / 5 Ref Frames
Format settings, CABAC         : Yes
Format settings, Reference fra : 5 frames
Codec ID                       : V_MPEG4/ISO/AVC
Duration                       : 1 h 51 min
Bit rate                       : 899 kb/s
Width                          : 1 280 pixels
Height                         : 546 pixels
Display aspect ratio           : 2.35:1
Frame rate mode                : Constant
Frame rate                     : 23.976 (24000/1001) FPS
Color space                    : YUV
Chroma subsampling             : 4:2:0
Bit depth                      : 8 bits
Scan type                      : Progressive
Bits/(Pixel*Frame)             : 0.054
Stream size                    : 717 MiB (82%)
Title                          : GOPI SAHI
Writing library                : x264 core 157 r2935 545de2f

Audio #1
ID                             : 2
Format                         : AAC LC
Format/Info                    : Advanced Audio Codec Low Complexity
Codec ID                       : A_AAC-2
Duration                       : 1 h 51 min
Bit rate                       : 96.0 kb/s
Channel(s)                     : 2 channels
Channel layout                 : L R
Sampling rate                  : 48.0 kHz
Frame rate                     : 46.875 FPS (1024 SPF)
Compression mode               : Lossy
Delay relative to video        : 979 ms
Stream size                    : 77.0 MiB (9%)
Title                          : GOPI SAHI
Language                       : Hindi
Default                        : Yes
Forced                         : No

Audio #2
ID                             : 3
Format                         : AAC LC
Format/Info                    : Advanced Audio Codec Low Complexity
Codec ID                       : A_AAC-2
Duration                       : 1 h 51 min
Bit rate                       : 96.0 kb/s
Channel(s)                     : 2 channels
Channel layout                 : L R
Sampling rate                  : 48.0 kHz
Frame rate                     : 46.875 FPS (1024 SPF)
Compression mode               : Lossy
Delay relative to video        : -21 ms
Stream size                    : 76.9 MiB (9%)
Title                          : GOPI SAHI
Language                       : English
Default                        : No
Forced                         : No

Text #1
ID                             : 4
Format                         : PGS
Muxing mode                    : zlib
Codec ID                       : S_HDMV/PGS
Codec ID/Info                  : Picture based subtitle format used on BDs/HD-DVDs
Duration                       : 1 h 48 min
Bit rate                       : 98 b/s
Count of elements              : 16
Stream size                    : 78.0 KiB (0%)
Title                          : GOPI SAHI
Language                       : Hindi
Default                        : Yes
Forced                         : Yes

Text #2
ID                             : 5
Format                         : PGS
Muxing mode                    : zlib
Codec ID                       : S_HDMV/PGS
Codec ID/Info                  : Picture based subtitle format used on BDs/HD-DVDs
Duration                       : 1 h 49 min
Bit rate                       : 22.4 kb/s
Count of elements              : 1776
Stream size                    : 17.6 MiB (2%)
Title                          : GOPI SAHI
Language                       : English
Default                        : No
Forced                         : No

Menu
00:00:00.000                   : :Opening Titles
00:05:09.518                   : :Child's Play
00:12:49.727                   : :Witness to a Murder
00:17:19.539                   : :Mick, the Psychiatrist
00:22:41.277                   : :The Abduction
00:28:59.529                   : :Don't Follow Me
00:33:22.918                   : :Photo Opportunity
00:38:39.692                   : :Just Hangin' Around
00:45:26.182                   : :Enlisting the Cavalry
00:50:32.488                   : :Diversionary Tactics
00:56:54.870                   : :Safe Custody
01:04:12.891                   : :Taking Care of Dundee
01:13:28.738                   : :A Woman's Trap
01:19:48.826                   : :Outback Telephone Call
01:23:33.509                   : :What's That Smell
01:28:45.111                   : :Playing with the Enemy
01:33:08.374                   : :This Isn't a Game
01:38:17.892                   : :I've Got a Donk
01:43:13.479                   : :Take Your Pants Off
01:47:43.499                   : :End Credits